<?xml version="1.0" standalone="no"?>
<!DOCTYPE svg PUBLIC "-//W3C//DTD SVG 1.1//EN" "http://www.w3.org/Graphics/SVG/1.1/DTD/svg11.dtd" >
<svg xmlns="http://www.w3.org/2000/svg">
<metadata></metadata>
<defs>
<font id="sinkin_sans500_medium" horiz-adv-x="1000" >
<font-face units-per-em="1000" ascent="810" descent="-190" />
<missing-glyph horiz-adv-x="310" />
<glyph />
<glyph />
<glyph horiz-adv-x="333" />
<glyph unicode="&#x9;" />
<glyph unicode="&#xa;" />
<glyph unicode="&#xd;" />
<glyph />
<glyph />
<glyph />
<glyph />
<glyph />
<glyph />
<glyph />
<glyph unicode=" "  horiz-adv-x="310" />
<glyph unicode="&#x09;" horiz-adv-x="310" />
<glyph unicode="&#xa0;" horiz-adv-x="310" />
<glyph unicode="!" horiz-adv-x="302" d="M70 79q0 40 21 64t60 24t60 -24t21 -64q0 -41 -21 -65t-60 -24t-60 24t-21 65zM80 810h142l-28 -588h-86z" />
<glyph unicode="&#x22;" horiz-adv-x="433" d="M55 840h123l-25 -309h-73zM255 840h123l-25 -309h-73z" />
<glyph unicode="#" horiz-adv-x="744" d="M30 205v100h131l-4 12l47 177l9 11h-106v100h131l-4 11l50 194h99l-50 -194l-8 -11h198l-4 12l50 193h99l-50 -193l-8 -12h104v-100h-132l5 -11l-46 -177l-8 -12h104v-100h-131l3 -11l-49 -194h-99l49 194l11 11h-200l4 -11l-50 -194h-99l49 194l11 11h-106zM248 305h198 l-4 12l46 177l10 11h-201l4 -11l-45 -177z" />
<glyph unicode="$" horiz-adv-x="752" d="M55 120l91 82q93 -85 177 -99q2 0 6.5 -0.5t6.5 -1.5l-6 13v202l7 11q-8 3 -24 7l-20 5q-104 29 -158 73t-54 122t62.5 135.5t178.5 68.5q4 1 15 1l-7 11v89h103v-90l-6 -12q7 0 15 -2q132 -18 225 -120l-90 -83q-60 71 -136 90q-2 0 -7 1t-7 2l6 -14v-181l-6 -10 q36 -9 66 -18q96 -28 142.5 -80t46.5 -120q0 -81 -60 -140.5t-180 -70.5q-4 -1 -15 -1l6 -12v-88h-103v88l7 12q-2 0 -7.5 0.5t-7.5 0.5q-165 20 -267 129zM202 537q0 -27 28 -48t95 -41q2 -1 6 -2t5 -1l-6 14v156l7 13q-9 0 -13 -1q-59 -8 -90.5 -34t-31.5 -56zM427 101 q4 1 13 1q61 9 90.5 35t29.5 60q0 29 -27 56t-85 44q-3 3 -10 3q-1 0 -5.5 1.5l-4.5 1.5l5 -13v-176z" />
<glyph unicode="%" horiz-adv-x="925" d="M30 592q0 99 48 164t136 65t136 -65t48 -164t-47 -161.5t-137 -62.5t-137 62.5t-47 161.5zM131 592q0 -129 82 -129q84 0 84 129q0 134 -83 134t-83 -134zM269 -10l290 830h99l-290 -830h-99zM528 214q0 99 47.5 163.5t135.5 64.5q89 0 136.5 -64.5t47.5 -163.5 q0 -100 -46.5 -162.5t-137.5 -62.5q-89 0 -136 62.5t-47 162.5zM628 214q0 -130 83 -130q84 0 84 130q0 134 -83 134q-84 0 -84 -134z" />
<glyph unicode="&#x26;" horiz-adv-x="790" d="M55 214q0 138 194 236l-13 5q-25 28 -38.5 46t-26 50.5t-12.5 68.5q0 82 60 140t146 58t146.5 -57.5t60.5 -140.5q0 -72 -40.5 -119t-119.5 -86l12 -6q9 -10 50 -56t76 -85t37 -41l4 -12q16 33 10 70h123v-23q0 -33 -15 -72t-39 -66l11 -3l109 -121h-149l-38 44l-2 12 q-87 -68 -235 -68q-136 0 -223.5 60t-87.5 166zM178 214q0 -56 49.5 -85.5t138.5 -30.5q106 0 158 43l-12 5l-191 213l-3 12q-10 -5 -42 -25q-44 -26 -71 -56.5t-27 -75.5zM272 617q0 -9 2.5 -18.5t5.5 -16t9.5 -16.5t9.5 -14t12 -15t11 -14q3 -3 9.5 -12t8.5 -12l2 -8 q61 28 89 55.5t28 71.5q0 38 -27 64t-66 26q-40 0 -67 -26t-27 -65z" />
<glyph unicode="'" horiz-adv-x="233" d="M55 840h123l-25 -309h-73z" />
<glyph unicode="(" horiz-adv-x="298" d="M40 358q0 280 148 549h100q-128 -260 -128 -536q0 -310 128 -562h-100q-148 272 -148 549z" />
<glyph unicode=")" horiz-adv-x="298" d="M10 -191q128 252 128 562q0 276 -128 536h100q148 -269 148 -549q0 -278 -149 -549h-99z" />
<glyph unicode="*" horiz-adv-x="577" d="M55 602l163 29l-135 96l51 63l123 -110l-9 165h81l-9 -166l123 111l51 -64l-135 -95l163 -29l-18 -79l-158 46l79 -145l-73 -35l-64 152l-63 -153l-73 36l79 144l-158 -45z" />
<glyph unicode="+" horiz-adv-x="685" d="M90 350v110h205l-7 12v206h109v-206l-7 -12h205v-110h-205l7 -12v-205h-109v205l7 12h-205z" />
<glyph unicode="," horiz-adv-x="292" d="M60 78q0 41 21 65t60 24t60 -24t21 -65q0 -25 -14 -59l-88 -205l-60 25l58 139l14 12q-72 9 -72 88z" />
<glyph unicode="-" horiz-adv-x="405" d="M30 275v110h345v-110h-345z" />
<glyph unicode="." horiz-adv-x="292" d="M60 79q0 40 21 64t60 24t60 -24t21 -64q0 -41 -21 -65t-60 -24t-60 24t-21 65z" />
<glyph unicode="/" horiz-adv-x="254" d="M-70 -50l290 910h104l-290 -910h-104z" />
<glyph unicode="0" horiz-adv-x="780" d="M55 400q0 187 88.5 303.5t246.5 116.5q160 0 247.5 -116t87.5 -304q0 -187 -86.5 -298.5t-248.5 -111.5t-248.5 111.5t-86.5 298.5zM178 400q0 -138 50.5 -218.5t160.5 -80.5q213 0 213 299q0 309 -212 309q-109 0 -160.5 -84t-51.5 -225z" />
<glyph unicode="1" horiz-adv-x="428" d="M20 607l205 203h103v-810h-120v578l8 84h-2l-50 -64l-68 -68z" />
<glyph unicode="2" horiz-adv-x="706" d="M55 141q-2 92 52 167.5t160 111.5l109 37q84 29 118 61t34 75q0 49 -39 82.5t-128 33.5q-129 0 -210 -106l-87 85q114 132 297 132q144 0 217 -66.5t73 -160.5q0 -82 -51 -141t-164 -98l-129 -44q-64 -22 -97.5 -67t-33.5 -108q0 -2 -2 -8t-2 -8l-7 -8h485v-111h-593z " />
<glyph unicode="3" horiz-adv-x="735" d="M55 122l89 85q90 -106 218 -106q100 0 147.5 39.5t47.5 89.5q0 56 -43.5 92.5t-133.5 44.5l-136 4v107q104 2 131 5q89 9 127 44t38 78q0 44 -40.5 73.5t-137.5 29.5q-126 0 -211 -99l-88 86q116 125 298 125q152 0 227 -61.5t75 -152.5q0 -115 -131 -178v-2 q68 -21 108 -73.5t40 -122.5q0 -45 -18.5 -86.5t-55 -76.5t-100 -56t-144.5 -21q-186 0 -307 132z" />
<glyph unicode="4" horiz-adv-x="745" d="M40 184v86l464 540h96v-502l-6 -13h111v-111h-111l6 -12v-172h-120v173l7 11h-447zM198 295h289l-7 13v231l6 88h-2q-33 -44 -72 -90.5t-87.5 -102.5t-74.5 -87l-52 -50v-2z" />
<glyph unicode="5" horiz-adv-x="748" d="M55 143l85 83q49 -67 103.5 -96.5t124.5 -29.5q102 0 152 49.5t50 118.5t-48 119t-144 50q-131 0 -220 -103l-78 75l49 401h506v-111h-414l11 -12l-15 -111l-16 -74l2 -1q72 47 175 47q152 0 233.5 -81t81.5 -199q0 -117 -82 -198t-243 -81q-104 0 -176 35t-137 119z" />
<glyph unicode="6" horiz-adv-x="774" d="M55 400q4 195 101 307.5t249 112.5q93 0 159.5 -29t123.5 -93l-88 -88q-74 99 -196 99q-98 0 -157 -69.5t-68 -187.5h2q36 44 95.5 70t126.5 26q152 0 235 -81.5t81 -198.5q-1 -54 -21.5 -102.5t-58.5 -88.5t-102 -64t-144 -24q-165 0 -253 112t-85 299zM198 267 q-2 -64 50 -115.5t147 -51.5q91 0 146 51.5t57 116.5q1 65 -50 117t-147 52q-92 0 -147 -53t-56 -117z" />
<glyph unicode="7" horiz-adv-x="685" d="M30 699v111h625v-92l-223 -283q-86 -110 -86 -287v-148h-120v154q0 110 24.5 188.5t84.5 154.5l105 135l63 65v2h-473z" />
<glyph unicode="8" horiz-adv-x="777" d="M55 234q0 67 40 117.5t111 79.5v2q-56 24 -89 66.5t-33 100.5q0 93 75.5 156.5t226.5 63.5q152 0 230 -63.5t78 -156.5q0 -107 -125 -168v-2q69 -23 111 -75t42 -121q0 -97 -87.5 -170.5t-245.5 -73.5q-159 0 -246.5 73.5t-87.5 170.5zM178 236q0 -49 54.5 -92t155.5 -43 t156 43t55 92q0 57 -57.5 99t-153.5 42t-153 -42t-57 -99zM207 594q0 -43 46.5 -80.5t134.5 -37.5t135 38t47 80q0 45 -43 79.5t-138 34.5t-138.5 -34.5t-43.5 -79.5z" />
<glyph unicode="9" horiz-adv-x="774" d="M55 542q1 54 21.5 102.5t58.5 88.5t101.5 63.5t143.5 23.5q166 0 254 -112t85 -299q-4 -195 -99.5 -307.5t-246.5 -112.5q-95 0 -164.5 29.5t-127.5 94.5l87 88q76 -101 205 -101q98 0 155.5 69.5t66.5 187.5h-2q-37 -43 -96 -69t-126 -26q-152 0 -235 81t-81 199z M176 541q-1 -64 50 -116.5t147 -52.5q92 0 147 53t56 118q1 64 -50.5 115t-146.5 51q-91 0 -146.5 -51.5t-56.5 -116.5z" />
<glyph unicode=":" horiz-adv-x="302" d="M70 79q0 40 21 64t60 24t60 -24t21 -64q0 -41 -21 -65t-60 -24t-60 24t-21 65zM70 521q0 41 21 65t60 24t60 -24t21 -65t-21 -65t-60 -24t-60 24t-21 65z" />
<glyph unicode=";" horiz-adv-x="302" d="M70 78q0 41 21 65t60 24t60 -24t21 -65q0 -25 -14 -59l-88 -205l-60 25l58 139l14 12q-72 9 -72 88zM70 521q0 41 21 65t60 24t60 -24t21 -65t-21 -65t-60 -24t-60 24t-21 65z" />
<glyph unicode="&#x3c;" horiz-adv-x="524" d="M55 405l301 300l78 -79l-176 -176l-55 -45l28 -23q32 -28 66 -61t74 -74t63 -63l-78 -79z" />
<glyph unicode="=" horiz-adv-x="685" d="M90 235v110h505v-110h-505zM90 465v110h505v-110h-505z" />
<glyph unicode="&#x3e;" horiz-adv-x="524" d="M90 184l177 176l54 44q-18 15 -76 67l-155 155l79 79l300 -300l-300 -300z" />
<glyph unicode="?" horiz-adv-x="669" d="M55 688q116 132 291 132q119 0 193.5 -66t74.5 -148q0 -66 -40 -116.5t-104 -74.5l-38 -15q-56 -20 -71.5 -47.5t-15.5 -96.5v-34h-120v43q0 96 33 150.5t134 92.5l23 8q42 16 59 37t17 53q0 38 -41.5 71t-103.5 33q-64 0 -111 -25t-89 -80zM204 79q0 40 21 64t60 24 t60 -24t21 -64q0 -41 -21.5 -65t-59.5 -24q-39 0 -60 24t-21 65z" />
<glyph unicode="@" horiz-adv-x="990" d="M70 419q0 175 130.5 300.5t306.5 125.5q169 0 291 -116.5t122 -284.5q0 -66 -27 -130.5t-82.5 -109.5t-125.5 -45q-75 0 -112 63h-2q-64 -64 -151 -64q-83 0 -127.5 59t-44.5 142q0 105 73.5 193t180.5 88q28 0 57.5 -14t44.5 -34h2l11 37h100l-69 -258q-11 -46 -11 -77 q0 -21 17 -35.5t39 -14.5q67 0 102.5 61.5t35.5 136.5q0 133 -94.5 230t-227.5 97q-144 0 -247.5 -105t-103.5 -249q0 -153 101.5 -258.5t251.5 -105.5q100 0 191 62l59 -56q-113 -83 -244 -83q-192 0 -319.5 126t-127.5 319zM350 371q0 -125 88 -125q63 0 99.5 61.5 t36.5 136.5q0 113 -83 113q-60 0 -100.5 -60.5t-40.5 -125.5z" />
<glyph unicode="A" horiz-adv-x="881" d="M15 0l367 810h117l367 -810h-131l-85 188l6 11h-431l6 -11l-85 -188h-131zM280 310h321l-12 12l-124 275l-23 74h-2l-23 -73l-125 -276z" />
<glyph unicode="B" horiz-adv-x="812" d="M90 0v810h384q124 0 191 -64.5t67 -159.5q0 -105 -85 -160v-2q58 -21 89 -71t31 -118q0 -110 -74 -172.5t-211 -62.5h-392zM198 111h284q87 0 124.5 31t37.5 93q0 126 -162 126h-284l12 -12v-226zM198 472h266q145 0 145 115q0 112 -145 112h-266l12 -12v-203z" />
<glyph unicode="C" horiz-adv-x="810" d="M55 400q0 189 108 304.5t302 115.5q198 0 315 -128l-89 -86q-81 103 -226 103q-144 0 -215.5 -85.5t-71.5 -223.5q0 -135 70 -217t216 -82q147 0 228 103l87 -85q-117 -129 -315 -129t-303.5 111t-105.5 299z" />
<glyph unicode="D" horiz-adv-x="848" d="M90 0v810h319q94 0 165 -24.5t112 -62.5t66 -94t33 -108.5t8 -115.5q0 -44 -4 -82.5t-15 -80.5t-28.5 -76.5t-47 -66t-68.5 -53t-94 -34t-123 -12.5h-323zM198 111h205q67 0 116 16t78 41t45.5 65t22 79.5t5.5 92.5q0 66 -10 114t-37.5 91.5t-83.5 66t-140 22.5h-201 l12 -12v-564z" />
<glyph unicode="E" horiz-adv-x="780" d="M90 0v810h620v-111h-512l12 -12v-214l-12 -13h464v-110h-464l12 -12v-215l-12 -12h512v-111h-620z" />
<glyph unicode="F" horiz-adv-x="720" d="M90 0v810h600v-111h-492l12 -12v-234l-12 -12h444v-111h-444l12 -12v-318h-120z" />
<glyph unicode="G" horiz-adv-x="910" d="M55 397q0 194 109.5 308.5t303.5 114.5q207 0 322 -123l-88 -86q-78 98 -234 98q-145 0 -217.5 -81.5t-72.5 -230.5q0 -142 71 -219t213 -77q108 0 176.5 67.5t71.5 170.5l12 11h-276v111h374v-461h-103v104h-2q-39 -52 -106.5 -83t-146.5 -31q-193 0 -300 109t-107 298z " />
<glyph unicode="H" horiz-adv-x="870" d="M90 0v810h120v-338l-12 -12h474l-12 12v338h120v-810h-120v337l12 12h-474l12 -12v-337h-120z" />
<glyph unicode="I" horiz-adv-x="310" d="M95 0v810h120v-810h-120z" />
<glyph unicode="J" horiz-adv-x="637" d="M0 115l84 85q34 -46 79 -72.5t88 -26.5q77 0 129 45.5t52 148.5v515h120v-510q0 -84 -24.5 -145.5t-67.5 -96.5t-95.5 -51.5t-114.5 -16.5q-149 0 -250 125z" />
<glyph unicode="K" horiz-adv-x="793" d="M90 0v810h120v-810h-120zM220 409l390 400h170l-401 -399v-2l414 -408h-174z" />
<glyph unicode="L" horiz-adv-x="678" d="M90 0v810h120v-687l-12 -12h465v-111h-573z" />
<glyph unicode="M" d="M90 0v810h103l267 -504l40 -96h2l39 96l268 504h101v-810h-120v548h-2l-44 -107l-243 -452h-3l-244 455l-42 103h-2v-547h-120z" />
<glyph unicode="N" horiz-adv-x="870" d="M90 0v810h106l408 -525l54 -91h2v616h120v-810h-106l-406 524l-56 92h-2v-616h-120z" />
<glyph unicode="O" horiz-adv-x="894" d="M55 400q0 189 102 304.5t290 115.5t290 -115t102 -305q0 -187 -103 -298.5t-289 -111.5q-189 0 -290.5 111t-101.5 299zM178 400q0 -135 66.5 -217t202.5 -82q138 0 203.5 81.5t65.5 217.5t-66 222.5t-203 86.5t-203 -85t-66 -224z" />
<glyph unicode="P" horiz-adv-x="797" d="M90 0v810h382q131 0 205.5 -70t74.5 -184q0 -111 -75 -183t-205 -72h-274l12 -12v-289h-120zM198 412h274q78 0 117.5 39t39.5 105q0 67 -39 105t-118 38h-274l12 -12v-263z" />
<glyph unicode="Q" horiz-adv-x="894" d="M55 403q0 188 102 302.5t290 114.5t290 -114t102 -303q0 -176 -90 -286l117 -118l-76 -75l-123 123q-91 -57 -220 -57q-188 0 -290 112t-102 301zM178 403q0 -136 66.5 -219t202.5 -83q72 0 124 26l18 -1l-117 116l76 76l122 -122v16q46 73 46 191q0 136 -66 221t-203 85 t-203 -84t-66 -222z" />
<glyph unicode="R" horiz-adv-x="819" d="M90 0v810h367q122 0 203.5 -63.5t81.5 -180.5q0 -71 -43.5 -126.5t-108.5 -77.5v-2q26 -11 52 -36.5t43 -60.5l129 -263h-134l-105 214q-28 57 -74 83.5t-121 26.5h-182l12 -11v-313h-120zM198 435h249q82 0 127 36.5t45 94.5q0 133 -162 133h-259l12 -12v-239z" />
<glyph unicode="S" horiz-adv-x="798" d="M50 128l89 86q69 -61 131.5 -87t138.5 -26q106 0 161 33.5t55 84.5q0 37 -35.5 68.5t-112.5 51.5q-9 3 -75.5 20t-73.5 19q-125 34 -190 82.5t-65 134.5q0 95 85.5 160t244.5 65q200 0 324 -130l-88 -87q-90 106 -236 106q-104 0 -155.5 -32t-51.5 -78q0 -37 41.5 -62.5 t145.5 -53.5q7 -2 35.5 -9.5t59 -15.5t36.5 -10q118 -30 176 -88t58 -135q0 -98 -83 -166.5t-252 -68.5q-105 0 -200.5 34t-162.5 104z" />
<glyph unicode="T" horiz-adv-x="730" d="M20 699v111h690v-111h-291l6 -12v-687h-120v687l7 12h-292z" />
<glyph unicode="U" horiz-adv-x="882" d="M85 372v438h120v-437q0 -134 55 -203t181 -69q125 0 180.5 69t55.5 203v437h120v-438q0 -382 -355 -382q-357 0 -357 382z" />
<glyph unicode="V" horiz-adv-x="849" d="M15 810h134l251 -593l24 -80h2l25 80l251 593h132l-351 -810h-117z" />
<glyph unicode="W" horiz-adv-x="1077" d="M25 810h128l154 -577l13 -82h2l15 82l156 577h92l157 -577l13 -81h2l14 81l155 577h126l-223 -810h-143l-132 490l-16 92h-2l-15 -92l-132 -490h-141z" />
<glyph unicode="X" horiz-adv-x="804" d="M20 0l307 406l-306 404h152l180 -240l48 -76h2l48 76l181 240h150l-305 -404l307 -406h-152l-178 238l-51 82h-2l-52 -82l-179 -238h-150z" />
<glyph unicode="Y" horiz-adv-x="840" d="M15 810h151l201 -284l52 -87h2l51 88l203 283h150l-344 -472v-338h-121v338z" />
<glyph unicode="Z" horiz-adv-x="810" d="M60 0v94l455 535l71 68v2h-516v111h675v-93l-452 -534l-71 -70v-2h528v-111h-690z" />
<glyph unicode="[" horiz-adv-x="294" d="M60 -190v1097h219v-93h-121v-910h121v-94h-219z" />
<glyph unicode="\" horiz-adv-x="334" d="M-30 860h104l290 -910h-104z" />
<glyph unicode="]" horiz-adv-x="295" d="M15 -96h122v910h-122v93h220v-1097h-220v94z" />
<glyph unicode="^" horiz-adv-x="686" d="M75 415l225 395h86l225 -395h-123l-115 205l-29 65h-2l-29 -65l-115 -205h-123z" />
<glyph unicode="_" horiz-adv-x="673" d="M-10 -83h693v-102h-693v102z" />
<glyph unicode="`" horiz-adv-x="720" d="M227 873l77 78l178 -208l-47 -48z" />
<glyph unicode="a" horiz-adv-x="720" d="M55 188q0 47 19 83.5t54.5 58.5t74 36.5t91 20.5t90.5 8t87 2q35 0 59 -2l-12 12v6t-1 6q-8 115 -160 115q-119 0 -191 -60l-77 79q111 86 268 86q55 0 102 -11.5t88 -37t64.5 -72.5t23.5 -112v-406h-117v48h-2q-74 -59 -191 -59q-51 0 -96.5 10.5t-86 32t-64 62 t-23.5 94.5zM171 188q0 -35 26.5 -57.5t59 -29.5t68.5 -7q27 0 55.5 3.5t62 12.5t54.5 29.5t21 48.5v94l12 12q-5 0 -25.5 1t-28.5 1q-40 0 -64 -0.5t-65.5 -3.5t-67.5 -10t-53.5 -18.5t-41 -30.5t-13.5 -45z" />
<glyph unicode="b" horiz-adv-x="753" d="M90 0v840h117v-277h2q69 77 190 77q146 0 222.5 -90t76.5 -237q0 -146 -77 -234.5t-222 -88.5q-124 0 -190 72h-2v-62h-117zM199 313q0 -100 46.5 -159t144.5 -59q99 0 145 58.5t46 159.5t-46.5 161t-144.5 60q-99 0 -145 -59.5t-46 -161.5z" />
<glyph unicode="c" horiz-adv-x="641" d="M55 310q0 144 83.5 237t229.5 93q149 0 239 -88l-78 -77q-60 60 -160 60q-95 -1 -146 -64.5t-51 -160.5q0 -95 48 -155t147 -60q101 0 167 67l77 -77q-96 -95 -244 -95q-153 0 -232.5 88.5t-79.5 231.5z" />
<glyph unicode="d" horiz-adv-x="753" d="M55 312q0 147 77 237.5t222 90.5q121 0 190 -77h2v277h117v-840h-117v62h-2q-66 -72 -190 -72q-145 0 -222 88.5t-77 233.5zM172 313q0 -101 46 -159.5t145 -58.5t145 58.5t46 159.5q0 102 -46 161.5t-145 59.5q-97 0 -144 -60t-47 -161z" />
<glyph unicode="e" horiz-adv-x="730" d="M55 310q0 147 83.5 238.5t228.5 91.5q151 0 229.5 -91t78.5 -239q0 -22 -3 -46h-507l12 -12q29 -158 195 -158q95 0 171 71l80 -80q-104 -95 -251 -95q-156 0 -236.5 88.5t-80.5 231.5zM166 366h399l-12 12q-14 75 -60.5 116.5t-125.5 41.5q-154 0 -188 -158z" />
<glyph unicode="f" horiz-adv-x="432" d="M30 529v101h81l-6 12q0 97 54 150t156 53q55 0 97 -16v-104q-43 17 -87 17q-103 0 -103 -100l-6 -12l196 -1v-100h-196l6 -12v-517h-117v517l6 12h-81z" />
<glyph unicode="g" horiz-adv-x="753" d="M55 339q0 129 78.5 215t220.5 86q58 0 108.5 -19.5t81.5 -54.5h2v64h117v-570q0 -132 -75 -203.5t-223 -71.5q-151 0 -270 90l79 80q84 -65 191 -65q89 0 135 44.5t46 125.5v52h-2q-70 -70 -189 -70q-146 0 -223 80.5t-77 216.5zM172 339q0 -88 48.5 -140t140.5 -52 q98 0 145.5 52t47.5 140t-50 142t-143 54t-141 -54t-48 -142z" />
<glyph unicode="h" horiz-adv-x="753" d="M90 0v840h117v-278h2q32 36 84.5 57t108.5 21q130 0 198 -66t68 -177v-397h-117v382q0 73 -34.5 113t-128.5 40q-79 0 -130 -44t-51 -122v-369h-117z" />
<glyph unicode="i" horiz-adv-x="297" d="M79 772q0 33 19 53.5t51 20.5t51 -20.5t19 -53.5t-19 -53.5t-51 -20.5t-51 20.5t-19 53.5zM90 0v630h117v-630h-117z" />
<glyph unicode="j" horiz-adv-x="297" d="M-59 -86q40 -20 86 -20q30 0 47 19t17 56v661h117v-672q0 -87 -45.5 -130t-129.5 -43q-49 0 -92 20v109zM79 772q0 33 19 53.5t51 20.5t51 -20.5t19 -53.5t-19 -53.5t-51 -20.5t-51 20.5t-19 53.5z" />
<glyph unicode="k" horiz-adv-x="683" d="M90 0v840h117v-840h-117zM217 318l302 312h153l-312 -309v-2l323 -319h-152z" />
<glyph unicode="l" horiz-adv-x="297" d="M90 0v840h117v-840h-117z" />
<glyph unicode="m" horiz-adv-x="1030" d="M90 0v630h118v-63h1q26 33 68 53t87 20q58 0 105 -29t70 -76h2q29 47 79 76t106 29q109 0 164 -68.5t55 -199.5l-1 -372h-117v349q0 37 -2 63t-9.5 51t-20 39.5t-34 23.5t-51.5 9q-64 0 -99.5 -45.5t-34.5 -112.5v-377h-118v372q0 82 -24.5 122.5t-91.5 40.5 q-58 0 -96 -45t-38 -114v-376h-118z" />
<glyph unicode="n" horiz-adv-x="753" d="M90 0v630h117v-68h2q32 36 84.5 57t108.5 21q124 0 195 -63.5t71 -178.5v-398h-117v380q0 76 -34 115.5t-129 39.5q-80 0 -130.5 -42.5t-50.5 -120.5v-372h-117z" />
<glyph unicode="o" horiz-adv-x="730" d="M55 315q0 145 80 235t229 90q151 0 231 -89t80 -236q0 -144 -80.5 -234.5t-229.5 -90.5q-151 0 -230.5 89.5t-79.5 235.5zM172 315q0 -99 48 -159.5t145 -60.5t145 60t48 160q0 99 -48 159.5t-145 60.5q-98 0 -145.5 -60t-47.5 -160z" />
<glyph unicode="p" horiz-adv-x="753" d="M90 -210v840h117v-65h2q67 75 190 75q145 0 222 -89.5t77 -235.5q0 -147 -76.5 -236t-222.5 -89q-123 0 -190 75h-2v-275h-117zM199 313q0 -101 46 -159.5t145 -58.5t145 58.5t46 159.5t-46 161.5t-145 60.5q-98 0 -144.5 -60.5t-46.5 -161.5z" />
<glyph unicode="q" horiz-adv-x="753" d="M55 315q0 146 77 235.5t222 89.5q123 0 190 -75h2v65h117v-840h-117v275h-2q-68 -75 -190 -75q-146 0 -222.5 89t-76.5 236zM172 313q0 -100 46.5 -159t144.5 -59q99 0 145 58.5t46 159.5t-46.5 161.5t-144.5 60.5t-144.5 -60.5t-46.5 -161.5z" />
<glyph unicode="r" horiz-adv-x="450" d="M90 0v630h117v-101h2q27 51 79 79.5t115 28.5h27v-119h-37q-84 1 -135 -49.5t-51 -157.5v-311h-117z" />
<glyph unicode="s" horiz-adv-x="661" d="M55 101l80 81q55 -49 102 -68.5t101 -19.5q76 0 113 24t37 56q0 26 -21 44t-81 33q-18 4 -112 31q-95 26 -148 66t-53 111q0 78 68.5 129.5t192.5 51.5q154 0 257 -107l-80 -80q-72 82 -177 82q-73 0 -108 -23t-35 -50q0 -25 28.5 -41.5t101.5 -35.5q79 -24 101 -29 q95 -25 139.5 -69t44.5 -109q0 -80 -66.5 -134.5t-198.5 -54.5q-175 0 -286 112z" />
<glyph unicode="t" horiz-adv-x="493" d="M30 529v101h79l-7 12v93l117 63v-156l-6 -12h198v-101h-198l6 -12v-323q0 -48 21 -73.5t58 -25.5q53 0 108 48l78 -78q-98 -75 -191 -75q-90 0 -140.5 54.5t-50.5 150.5v322l7 12h-79z" />
<glyph unicode="u" horiz-adv-x="745" d="M85 241v389h117v-385q0 -73 33 -111.5t126 -38.5q79 0 128 42.5t49 120.5v372h117v-630h-117v68h-2q-72 -78 -189 -78q-134 0 -198 65.5t-64 185.5z" />
<glyph unicode="v" horiz-adv-x="675" d="M10 630h130l170 -416l26 -82h2l27 82l170 416h130l-269 -630h-117z" />
<glyph unicode="w" horiz-adv-x="915" d="M15 630h124l116 -410l13 -79h2l13 79l126 410h98l126 -410l14 -79h2l12 79l117 410h122l-186 -630h-128l-112 350l-15 84h-2l-15 -84l-114 -350h-127z" />
<glyph unicode="x" horiz-adv-x="657" d="M20 0l237 316l-235 314h146l124 -169l36 -59h2l35 59l126 169h144l-235 -314l237 -316h-146l-129 175l-33 56h-2l-32 -56l-130 -175h-145z" />
<glyph unicode="y" horiz-adv-x="700" d="M15 630h130l186 -417l28 -85h2l27 85l167 417h130l-292 -695q-29 -70 -80 -110t-114 -40q-73 0 -130 29v112q62 -33 118 -33q69 0 115 113z" />
<glyph unicode="z" horiz-adv-x="677" d="M60 0v87l331 376l65 58l1 1h-390v107h547v-82l-335 -377l-69 -62l1 -1h406v-107h-557z" />
<glyph unicode="{" horiz-adv-x="349" d="M40 311v96q73 14 73 98v236q0 155 115 170l111 3v-89q-25 0 -30 -1q-61 -1 -79.5 -20t-18.5 -71v-227q0 -58 -15.5 -90t-60.5 -57q52 -29 64 -56t12 -93v-225q0 -52 18.5 -71t79.5 -20q5 -1 30 -1v-89q-90 0 -111 3q-115 15 -115 170v227q0 46 -15.5 73t-57.5 34z" />
<glyph unicode="|" horiz-adv-x="334" d="M115 -50v910h104v-910h-104z" />
<glyph unicode="}" horiz-adv-x="349" d="M10 -107q25 0 30 1q61 1 79.5 20t18.5 71v225q0 66 12 93t63 56q-45 25 -60 57t-15 90v227q0 52 -18.5 71t-79.5 20q-5 1 -30 1v89q90 0 111 -3q115 -15 115 -170v-236q0 -84 73 -98v-96q-42 -7 -57.5 -34t-15.5 -73v-227q0 -155 -115 -170l-111 -3v89z" />
<glyph unicode="~" horiz-adv-x="594" d="M30 296q14 51 59 86.5t104 35.5q41 0 114 -41.5t101 -41.5q66 0 91 86l65 -66q-17 -54 -61.5 -87.5t-102.5 -33.5q-41 0 -113 41t-103 41q-33 0 -55.5 -24t-33.5 -61z" />
<glyph />
<glyph unicode="&#xa1;" horiz-adv-x="304" d="M70 731q0 39 21.5 64t60.5 25t60.5 -24.5t21.5 -64.5q0 -39 -21.5 -63.5t-60.5 -24.5t-60.5 24t-21.5 64zM81 0l27 588h87l27 -588h-141z" />
<glyph unicode="&#xa2;" horiz-adv-x="641" d="M55 400q0 141 80.5 233.5t212.5 96.5h27l-5 11l16 79h98l-18 -88l-8 -10q91 -23 149 -80l-81 -80q-37 37 -89 52l5 -12l-78 -403l-9 -11h12q96 -1 164 67l80 -80q-96 -95 -244 -95q-27 0 -34 1l6 -10l-16 -81h-98l19 97l10 9q-97 29 -148 109.5t-51 194.5zM172 400 q0 -65 25 -117t78 -76l-5 16l75 388l9 10q-2 -1 -8 -1q-86 -9 -130 -69.5t-44 -150.5z" />
<glyph unicode="&#xa3;" horiz-adv-x="738" d="M55 0v102q75 36 102 84t8 151l4 13h-97v110h69l-9 12q-18 72 -18 117q0 117 78 174t199 57q165 0 277 -132l-83 -83q-82 104 -198 104q-150 0 -150 -116q0 -46 17 -121l-4 -12h240v-110h-212l8 -13q29 -157 -60 -224v-2h428v-111h-599z" />
<glyph unicode="&#xa4;" horiz-adv-x="624" d="M55 590l71 69l70 -69q51 32 116 32q63 0 114 -32l71 69l72 -69l-71 -73q33 -55 33 -114q0 -65 -32 -116l68 -71l-70 -69l-71 69q-52 -31 -114 -31q-65 0 -116 32l-70 -69l-70 69l69 71q-32 55 -32 115t33 114zM194 403q0 -49 34.5 -83.5t83.5 -34.5q50 0 84.5 34t34.5 84 q0 49 -35 84.5t-84 35.5t-83.5 -35t-34.5 -85z" />
<glyph unicode="&#xa5;" horiz-adv-x="850" d="M25 810h151l201 -284l47 -79h2l46 80l203 283h150l-257 -353l-14 -14l170 4v-101h-245l6 -13v-57l-6 -13h245v-101h-245l6 -11v-151h-120v150l6 12h-243v101h243l-4 8l-2 26l3 43l3 6h-243v101h167l-13 11z" />
<glyph unicode="&#xa6;" horiz-adv-x="335" d="M115 -50v410h105v-410h-105zM115 450v410h105v-410h-105z" />
<glyph unicode="&#xa7;" horiz-adv-x="657" d="M44 363q0 56 31.5 99.5t85.5 83.5q-47 51 -47 105t32.5 93t83 57t111.5 18q68 0 135.5 -30.5t121.5 -84.5l-81 -79q-38 41 -84 64t-92 23t-73.5 -16.5t-27.5 -45.5q0 -46 101 -104q17 -10 47 -26t52.5 -28.5t50.5 -30t48 -35t38 -38.5t27.5 -46t9.5 -52q0 -102 -106 -185 q28 -29 41 -57t13 -67q0 -61 -32.5 -103t-81 -60.5t-107.5 -18.5q-46 0 -93 12.5t-92 37.5t-81 60l81 79q19 -20 41.5 -35.5t46.5 -25t48.5 -14.5t48.5 -5q94 0 94 74q0 22 -20 46q-22 26 -54.5 48.5t-87.5 51.5t-69 37q-74 42 -117 88.5t-43 109.5zM163 373q0 -54 86 -103 l176 -101q11 10 19 17.5t18.5 19t16.5 21.5t10.5 22.5t4.5 24.5q0 15 -6.5 29t-14 23.5t-23.5 21.5t-24 17t-26 16l-164 97q-16 -14 -25.5 -23t-22 -23.5t-19 -29t-6.5 -29.5z" />
<glyph unicode="&#xa8;" horiz-adv-x="720" d="M162 778q0 32 16.5 51.5t47.5 19.5q32 0 48.5 -19t16.5 -52q0 -32 -17 -51.5t-48 -19.5t-47.5 19.5t-16.5 51.5zM406 778q0 32 16.5 51.5t47.5 19.5q32 0 48.5 -19t16.5 -52q0 -32 -17 -51.5t-48 -19.5t-47.5 19.5t-16.5 51.5z" />
<glyph unicode="&#xa9;" horiz-adv-x="959" d="M60 401q0 173 123 296t297 123q173 0 296 -123t123 -296q0 -174 -123 -297.5t-296 -123.5q-174 0 -297 123.5t-123 297.5zM143 401q0 -140 99 -243t238 -103q138 0 237 103t99 243q0 139 -99.5 242t-236.5 103q-138 0 -237.5 -103t-99.5 -242zM227 396q0 121 67.5 199 t184.5 78q124 0 192 -74l-62 -62q-48 51 -129 51q-80 -1 -122.5 -55t-42.5 -137q0 -81 40 -132t123 -51q82 0 137 59l62 -62q-76 -83 -199 -83t-187 74.5t-64 194.5z" />
<glyph unicode="&#xaa;" horiz-adv-x="467" d="M30 520q0 32 12.5 57t36.5 39.5t49 24.5t60.5 14t59 5t55.5 1q26 0 36 -1q-10 10 -9 17q-17 67 -101 67q-80 0 -129 -45l-57 56q79 65 186 65q77 0 130 -36.5t53 -119.5v-270h-82v32h-1q-47 -39 -121 -39q-73 0 -125.5 32t-52.5 101zM112 520q0 -20 15 -33.5t35.5 -18.5 t45.5 -5q19 0 37.5 2.5t39 8t33 18t12.5 29.5v55l9 12h-33h-24t-24.5 -0.5t-26.5 -1.5t-25.5 -2.5t-25 -4t-21.5 -6t-19.5 -8.5t-14.5 -11.5t-10 -15t-3 -18.5z" />
<glyph unicode="&#xab;" horiz-adv-x="673" d="M55 255l212 210l77 -78l-89 -89l-56 -43q1 -1 1 -2l55 -41l89 -89l-77 -78zM329 255l212 210l77 -78l-89 -89l-56 -43q1 -1 1 -2l55 -41l89 -89l-77 -78z" />
<glyph unicode="&#xac;" horiz-adv-x="583" d="M30 264v106h523v-320h-111v203l5 11h-417z" />
<glyph unicode="&#xad;" horiz-adv-x="405" d="M30 275v110h345v-110h-345z" />
<glyph unicode="&#xae;" horiz-adv-x="959" d="M60 401q0 173 123 296t297 123q173 0 296 -123t123 -296q0 -174 -123 -297.5t-296 -123.5q-174 0 -297 123.5t-123 297.5zM143 400q0 -139 99.5 -242t237.5 -103t237 103t99 242q0 140 -99.5 243t-236.5 103q-138 0 -237.5 -103t-99.5 -243zM289 162v476h208 q69 0 116.5 -38t47.5 -109q0 -39 -20.5 -71t-52.5 -47q24 -17 38 -49l77 -162h-95l-59 126q-14 30 -35 43t-58 13h-92l10 -11v-171h-85zM364 427h128q40 0 61.5 18t21.5 46q0 64 -78 64h-133l10 -11v-106z" />
<glyph unicode="&#xaf;" horiz-adv-x="709" d="M170 742v80h395v-80h-395z" />
<glyph unicode="&#xb0;" horiz-adv-x="437" d="M30 627q0 86 45.5 139.5t130.5 53.5q86 0 131 -53t45 -140q0 -85 -45.5 -138.5t-130.5 -53.5t-130.5 53.5t-45.5 138.5zM111 627q0 -51 23.5 -81t71.5 -30t71.5 30t23.5 81t-23.5 81.5t-71.5 30.5q-95 0 -95 -112z" />
<glyph unicode="&#xb1;" horiz-adv-x="685" d="M90 50v110h505v-110h-505zM90 425v110h205l-7 12v206h109v-206l-7 -12h205v-110h-205l7 -12v-205h-109v205l7 12h-205z" />
<glyph unicode="&#xb2;" horiz-adv-x="434" d="M55 733q69 82 167 82q76 0 116.5 -38t40.5 -92q0 -94 -116 -136l-64 -22q-14 -5 -23.5 -14t-13.5 -16.5t-10.5 -23t-9.5 -21.5l-7 -8h244v-83h-322v85q0 53 28 97t85 65l55 19q40 14 53.5 27.5t13.5 30.5q0 47 -71 47q-57 0 -103 -62z" />
<glyph unicode="&#xb3;" horiz-adv-x="469" d="M55 437l62 61q28 -33 54 -47.5t62 -14.5q49 0 72 18.5t23 39.5q0 56 -84 63l-76 3v76q60 1 73 3q43 4 60.5 20.5t17.5 34.5q0 17 -19 30.5t-66 13.5q-35 0 -60.5 -13.5t-52.5 -44.5l-62 62q71 78 176 78q83 0 127 -36t44 -90q0 -27 -17 -52t-43 -40v-2q68 -29 68 -104 q0 -57 -47 -99t-133 -42q-106 0 -179 82z" />
<glyph unicode="&#xb4;" horiz-adv-x="725" d="M250 743l178 208l77 -78l-207 -178z" />
<glyph unicode="&#xb5;" horiz-adv-x="730" d="M90 -210v840h117v-373q0 -76 40.5 -119.5t106.5 -43.5q77 0 123.5 44.5t46.5 121.5v370h116v-631h-116v54h-2q-61 -64 -167 -64q-91 0 -147 61l-1 -1v-259h-117z" />
<glyph unicode="&#xb6;" horiz-adv-x="665" d="M0 554q0 106 77 181t185 75h333v-105h-64l6 -10v-876h-110v876l6 10h-78l6 -10v-876h-111v470l7 10h-9q-105 6 -176.5 79t-71.5 176z" />
<glyph unicode="&#xb7;" horiz-adv-x="292" d="M60 406q0 40 21 64t60 24t60 -24t21 -64q0 -41 -21 -65t-60 -24t-60 24t-21 65z" />
<glyph unicode="&#xb8;" horiz-adv-x="641" d="M264 -153l66 66q33 33 10 56l-35 35h77l29 -26q22 -21 22.5 -46.5t-23.5 -49.5l-90 -90z" />
<glyph unicode="&#xb9;" horiz-adv-x="297" d="M30 694l118 116h74v-455h-85v300l7 47q-15 -21 -34 -43l-22 -23z" />
<glyph unicode="&#xba;" horiz-adv-x="494" d="M30 604q0 96 52.5 156t151.5 60t152 -59.5t53 -156.5q0 -96 -53 -156.5t-152 -60.5t-151.5 60t-52.5 157zM112 604q0 -64 30.5 -102t91.5 -38q62 0 92.5 37.5t30.5 102.5q0 64 -30.5 101.5t-92.5 37.5t-92 -37.5t-30 -101.5z" />
<glyph unicode="&#xbb;" horiz-adv-x="673" d="M55 123l89 89q48 37 56 42l-27 20q-30 25 -118 113l77 78l212 -210l-212 -210zM329 123l89 89q48 37 56 42l-27 20q-30 25 -118 113l77 78l212 -210l-212 -210z" />
<glyph unicode="&#xbc;" horiz-adv-x="795" d="M30 694l118 116h74v-455h-85v300l7 47q-15 -21 -34 -43l-22 -23zM153 -10l291 830h91l-291 -830h-91zM372 98v63l243 293h76v-265l-5 -9h54v-82h-55l5 -8l1 -91h-87v90l5 9h-237zM481 179l128 1l-5 8v110l1 33q-6 -8 -28 -41l-68 -82l-27 -27z" />
<glyph unicode="&#xbd;" horiz-adv-x="819" d="M30 694l118 116h74v-455h-85v300l7 47q-15 -21 -34 -43l-22 -23zM154 -10l291 830h91l-291 -830h-91zM440 372q71 82 166 82q77 0 117.5 -38t40.5 -93q0 -94 -116 -135l-65 -23q-19 -6 -29.5 -19.5t-18 -33.5t-15.5 -30h243v-83h-322v86q0 53 28.5 97t85.5 64l54 19 q40 14 54 27.5t14 30.5q0 48 -71 48q-29 0 -53 -14t-50 -48z" />
<glyph unicode="&#xbe;" horiz-adv-x="947" d="M55 437l62 61q28 -33 54 -47.5t62 -14.5q49 0 72 18.5t23 39.5q0 56 -84 63l-76 3v76q60 1 73 3q43 4 60.5 20.5t17.5 34.5q0 17 -19 30.5t-66 13.5q-35 0 -60.5 -13.5t-52.5 -44.5l-62 62q71 78 176 78q83 0 127 -36t44 -90q0 -27 -17 -52t-43 -40v-2q68 -29 68 -104 q0 -57 -47 -99t-133 -42q-106 0 -179 82zM305 -10l291 830h91l-291 -830h-91zM525 98v63l242 293h76v-265l-5 -9h54v-82h-55l6 -8v-91h-87v90l6 9h-237zM633 179l128 1l-5 8v110l2 33q-6 -8 -28 -41l-68 -82l-28 -27z" />
<glyph unicode="&#xbf;" horiz-adv-x="669" d="M55 203q0 67 40 117.5t104 74.5l38 14q55 21 71 49t16 96v34h120v-43q0 -96 -33 -150.5t-134 -92.5l-23 -8q-42 -16 -59 -37.5t-17 -53.5q0 -37 41.5 -70.5t103.5 -33.5q64 0 110.5 25t88.5 80l92 -82q-116 -132 -291 -132q-119 0 -193.5 65.5t-74.5 147.5zM303 731 q0 41 21 65t60 24t60 -24t21 -65q0 -40 -21 -64t-60 -24t-60 23.5t-21 64.5z" />
<glyph unicode="&#xc0;" horiz-adv-x="881" d="M15 0l367 810h117l367 -810h-131l-85 188l6 11h-431l6 -11l-85 -188h-131zM280 310h321l-12 12l-124 275l-23 74h-2l-23 -73l-125 -276zM307 1052l77 77l178 -207l-47 -48z" />
<glyph unicode="&#xc1;" horiz-adv-x="881" d="M15 0l367 810h117l367 -810h-131l-85 188l6 11h-431l6 -11l-85 -188h-131zM280 310h321l-12 12l-124 275l-23 74h-2l-23 -73l-125 -276zM323 922l178 207l78 -77l-208 -178z" />
<glyph unicode="&#xc2;" horiz-adv-x="881" d="M15 0l367 810h117l367 -810h-131l-85 188l6 11h-431l6 -11l-85 -188h-131zM252 920l188 186h2l187 -186l-47 -47l-141 114h-2l-140 -114zM280 310h321l-12 12l-124 275l-23 74h-2l-23 -73l-125 -276z" />
<glyph unicode="&#xc3;" horiz-adv-x="881" d="M15 0l367 810h117l367 -810h-131l-85 188l6 11h-431l6 -11l-85 -188h-131zM206 926q12 44 53 78.5t91 34.5q24 0 50 -11t57 -29.5t43 -24.5q23 -10 40 -10q60 0 84 77l54 -53q-16 -50 -57 -81.5t-90 -31.5q-36 0 -102 39q-27 18 -46 25q-22 11 -41 11q-59 0 -84 -76z M280 310h321l-12 12l-124 275l-23 74h-2l-23 -73l-125 -276z" />
<glyph unicode="&#xc4;" horiz-adv-x="881" d="M15 0l367 810h117l367 -810h-131l-85 188l6 11h-431l6 -11l-85 -188h-131zM255 971q0 32 16.5 51.5t47.5 19.5t48 -19.5t17 -51.5t-16.5 -51.5t-47.5 -19.5t-48 19.5t-17 51.5zM280 310h321l-12 12l-124 275l-23 74h-2l-23 -73l-125 -276zM499 971q0 32 16.5 51.5 t47.5 19.5t48 -19.5t17 -51.5t-16.5 -51.5t-47.5 -19.5t-48 19.5t-17 51.5z" />
<glyph unicode="&#xc5;" horiz-adv-x="881" d="M15 0l367 810h117l367 -810h-131l-85 188l6 11h-431l6 -11l-85 -188h-131zM280 310h321l-12 12l-124 275l-23 74h-2l-23 -73l-125 -276zM328 992q0 52 29 84t84 32t84 -32t29 -84t-29.5 -84.5t-83.5 -32.5q-55 0 -84 32.5t-29 84.5zM389 992q0 -26 13.5 -41.5t38.5 -15.5 t38.5 15.5t13.5 41.5q0 25 -13.5 40.5t-38.5 15.5q-52 0 -52 -56z" />
<glyph unicode="&#xc6;" horiz-adv-x="1076" d="M15 0l367 810h624v-111h-375l6 -12v-214l-12 -13h338v-110h-338l12 -12v-215l-12 -12h381v-111h-489v187l8 12h-300l6 -12l-85 -187h-131zM280 310h248l-10 12v365l7 12h-73l3 -12l-165 -367z" />
<glyph unicode="&#xc7;" horiz-adv-x="810" d="M55 400q0 189 108 304.5t302 115.5q198 0 315 -128l-89 -86q-81 103 -226 103q-144 0 -215.5 -85.5t-71.5 -223.5q0 -135 70 -217t216 -82q147 0 228 103l87 -85q-109 -119 -283 -128l14 -13q22 -21 22.5 -46.5t-23.5 -49.5l-90 -90l-56 55l66 66q33 33 10 56l-23 23 q-175 13 -268 122.5t-93 285.5z" />
<glyph unicode="&#xc8;" horiz-adv-x="780" d="M90 0v810h620v-111h-512l12 -12v-214l-12 -13h464v-110h-464l12 -12v-215l-12 -12h512v-111h-620zM263 1053l78 77l178 -207l-48 -48z" />
<glyph unicode="&#xc9;" horiz-adv-x="780" d="M90 0v810h620v-111h-512l12 -12v-214l-12 -13h464v-110h-464l12 -12v-215l-12 -12h512v-111h-620zM307 922l178 207l77 -77l-207 -178z" />
<glyph unicode="&#xca;" horiz-adv-x="780" d="M90 0v810h620v-111h-512l12 -12v-214l-12 -13h464v-110h-464l12 -12v-215l-12 -12h512v-111h-620zM218 920l188 186h2l187 -186l-47 -47l-141 114h-2l-140 -114z" />
<glyph unicode="&#xcb;" horiz-adv-x="780" d="M90 0v810h620v-111h-512l12 -12v-214l-12 -13h464v-110h-464l12 -12v-215l-12 -12h512v-111h-620zM219 971q0 33 17 52t48 19q32 0 48.5 -19t16.5 -52q0 -32 -17 -51t-48 -19q-32 0 -48.5 19t-16.5 51zM463 971q0 33 17 52t48 19q32 0 48.5 -19t16.5 -52q0 -32 -17 -51 t-48 -19q-32 0 -48.5 19t-16.5 51z" />
<glyph unicode="&#xcc;" horiz-adv-x="310" d="M13 1053l77 77l178 -207l-47 -48zM95 0v810h120v-810h-120z" />
<glyph unicode="&#xcd;" horiz-adv-x="310" d="M35 922l178 207l77 -77l-207 -178zM95 0v810h120v-810h-120z" />
<glyph unicode="&#xce;" horiz-adv-x="310" d="M-32 920l189 186h2l187 -186l-47 -47l-142 114h-2l-140 -114zM95 0v810h120v-810h-120z" />
<glyph unicode="&#xcf;" horiz-adv-x="310" d="M-30 970q0 33 16.5 52t47.5 19q32 0 48.5 -19t16.5 -52q0 -32 -16.5 -51t-47.5 -19q-32 0 -48.5 19t-16.5 51zM95 0v810h120v-810h-120zM214 970q0 33 16.5 52t47.5 19q32 0 48.5 -19t16.5 -52q0 -32 -16.5 -51t-47.5 -19q-32 0 -48.5 19t-16.5 51z" />
<glyph unicode="&#xd0;" horiz-adv-x="848" d="M25 350v110h72l-8 13l1 337h319q94 0 165 -24.5t112 -62.5t66 -94t33 -108.5t8 -115.5q0 -44 -4 -82.5t-15 -80.5t-28.5 -76.5t-47 -66t-68.5 -53t-94 -34t-123 -12.5h-323v338l7 12h-72zM198 111h205q67 0 116 16t78 41t45.5 65t22 79.5t5.5 92.5q0 66 -10 114 t-37.5 91.5t-83.5 66t-140 22.5h-201l12 -12v-215l-7 -12h202v-110h-202l7 -13v-214z" />
<glyph unicode="&#xd1;" horiz-adv-x="870" d="M90 0v810h106l408 -525l54 -91h2v616h120v-810h-106l-406 524l-56 92h-2v-616h-120zM197 926q13 44 54 78.5t91 34.5q24 0 50 -11t56.5 -29.5t42.5 -24.5q25 -10 40 -10q61 0 85 77l53 -53q-15 -49 -56 -81t-90 -32q-32 0 -88 31t-60 33q-22 11 -42 11q-58 0 -83 -76z " />
<glyph unicode="&#xd2;" horiz-adv-x="894" d="M55 400q0 189 102 304.5t290 115.5t290 -115t102 -305q0 -187 -103 -298.5t-289 -111.5q-189 0 -290.5 111t-101.5 299zM178 400q0 -135 66.5 -217t202.5 -82q138 0 203.5 81.5t65.5 217.5t-66 222.5t-203 86.5t-203 -85t-66 -224zM303 1053l78 77l178 -207l-48 -48z" />
<glyph unicode="&#xd3;" horiz-adv-x="894" d="M55 400q0 189 102 304.5t290 115.5t290 -115t102 -305q0 -187 -103 -298.5t-289 -111.5q-189 0 -290.5 111t-101.5 299zM178 400q0 -135 66.5 -217t202.5 -82q138 0 203.5 81.5t65.5 217.5t-66 222.5t-203 86.5t-203 -85t-66 -224zM334 922l178 207l78 -77l-208 -178z " />
<glyph unicode="&#xd4;" horiz-adv-x="894" d="M55 400q0 189 102 304.5t290 115.5t290 -115t102 -305q0 -187 -103 -298.5t-289 -111.5q-189 0 -290.5 111t-101.5 299zM178 400q0 -135 66.5 -217t202.5 -82q138 0 203.5 81.5t65.5 217.5t-66 222.5t-203 86.5t-203 -85t-66 -224zM260 920l188 186h2l187 -186l-47 -47 l-141 114h-2l-140 -114z" />
<glyph unicode="&#xd5;" horiz-adv-x="894" d="M55 400q0 189 102 304.5t290 115.5t290 -115t102 -305q0 -187 -103 -298.5t-289 -111.5q-189 0 -290.5 111t-101.5 299zM178 400q0 -135 66.5 -217t202.5 -82q138 0 203.5 81.5t65.5 217.5t-66 222.5t-203 86.5t-203 -85t-66 -224zM206 926q12 44 53 78.5t91 34.5 q24 0 50 -11t57 -29.5t43 -24.5q23 -10 40 -10q60 0 84 77l54 -53q-16 -50 -57 -81.5t-90 -31.5q-36 0 -102 39q-27 18 -46 25q-22 11 -41 11q-59 0 -84 -76z" />
<glyph unicode="&#xd6;" horiz-adv-x="894" d="M55 400q0 189 102 304.5t290 115.5t290 -115t102 -305q0 -187 -102.5 -298.5t-289.5 -111.5q-189 0 -290.5 111t-101.5 299zM178 400q0 -135 66.5 -217t202.5 -82q138 0 203.5 81.5t65.5 217.5t-66 222.5t-203 86.5t-203 -85t-66 -224zM259 971q0 32 17 51.5t48 19.5 t48 -19.5t17 -51.5t-17 -51.5t-48 -19.5t-48 19.5t-17 51.5zM503 971q0 32 17 51.5t48 19.5t48 -19.5t17 -51.5t-17 -51.5t-48 -19.5t-48 19.5t-17 51.5z" />
<glyph unicode="&#xd7;" horiz-adv-x="626" d="M75 244l166 163l-8 4l-158 155l77 77l153 -158l6 -9l163 167l77 -77l-167 -163l8 -4l159 -155l-77 -77l-155 159l-5 8l-162 -167z" />
<glyph unicode="&#xd8;" horiz-adv-x="894" d="M55 400q0 188 103 304t290 116q97 0 177 -36l1 11l34 60l61 -36l-34 -58l-8 -6q160 -110 160 -355q0 -187 -102.5 -298.5t-289.5 -111.5q-107 0 -188 38l2 -11l-51 -89l-60 36l50 87l9 5q-154 108 -154 344zM178 400q0 -163 91 -241v14l290 506l10 5q-50 25 -122 25 q-137 0 -203 -85t-66 -224zM318 127q55 -26 129 -26q138 0 203.5 81.5t65.5 217.5q0 173 -96 254v-12l-292 -508z" />
<glyph unicode="&#xd9;" horiz-adv-x="882" d="M85 372v438h120v-437q0 -134 55 -203t181 -69q125 0 180.5 69t55.5 203v437h120v-438q0 -382 -355 -382q-357 0 -357 382zM297 1053l78 77l178 -207l-48 -48z" />
<glyph unicode="&#xda;" horiz-adv-x="882" d="M85 372v438h120v-437q0 -134 55 -203t181 -69q125 0 180.5 69t55.5 203v437h120v-438q0 -382 -355 -382q-357 0 -357 382zM318 922l178 207l77 -77l-207 -178z" />
<glyph unicode="&#xdb;" horiz-adv-x="882" d="M85 372v438h120v-437q0 -134 55 -203t181 -69q125 0 180.5 69t55.5 203v437h120v-438q0 -382 -355 -382q-357 0 -357 382zM253 920l189 186h2l187 -186l-47 -47l-142 114h-2l-140 -114z" />
<glyph unicode="&#xdc;" horiz-adv-x="882" d="M85 372v438h120v-437q0 -134 55 -203t181 -69q125 0 180.5 69t55.5 203v437h120v-438q0 -382 -355 -382q-357 0 -357 382zM254 971q0 32 17 51.5t48 19.5t48 -19.5t17 -51.5t-17 -51.5t-48 -19.5t-48 19.5t-17 51.5zM498 971q0 32 17 51.5t48 19.5t48 -19.5t17 -51.5 t-17 -51.5t-48 -19.5t-48 19.5t-17 51.5z" />
<glyph unicode="&#xdd;" horiz-adv-x="850" d="M15 810h151l209 -288l49 -84h2l48 85l211 287h150l-349 -472v-338h-121v338zM309 922l178 207l77 -77l-207 -178z" />
<glyph unicode="&#xde;" horiz-adv-x="797" d="M90 0v810h119v-139l-12 -12h275q132 0 206 -70.5t74 -184.5q0 -110 -75 -182t-205 -72h-274l12 -12v-138h-120zM198 260h274q78 0 117.5 39.5t39.5 104.5q0 68 -39 106t-118 38h-274l12 -12v-263z" />
<glyph unicode="&#xdf;" horiz-adv-x="707" d="M90 0v639q0 206 236 206q116 0 191 -62t75 -162q0 -105 -88 -156v-2q64 -20 106 -80t42 -138q0 -110 -73.5 -183t-184.5 -73q-83 0 -147 23v114q42 -18 69 -23.5t69 -5.5q67 0 108.5 39.5t41.5 107.5t-43.5 109.5t-112.5 41.5h-129v107l92 -1q62 -1 97 29.5t35 85.5 q0 57 -42 89.5t-107 32.5t-91.5 -28.5t-26.5 -93.5v-616h-117z" />
<glyph unicode="&#xe0;" horiz-adv-x="720" d="M55 188q0 47 19 83.5t54.5 58.5t74 36.5t91 20.5t90.5 8t87 2q35 0 59 -2l-12 12v6t-1 6q-8 115 -160 115q-119 0 -191 -60l-77 79q111 86 268 86q55 0 102 -11.5t88 -37t64.5 -72.5t23.5 -112v-406h-117v48h-2q-74 -59 -191 -59q-51 0 -96.5 10.5t-86 32t-64 62 t-23.5 94.5zM171 188q0 -35 26.5 -57.5t59 -29.5t68.5 -7q27 0 55.5 3.5t62 12.5t54.5 29.5t21 48.5v94l12 12q-5 0 -25.5 1t-28.5 1q-40 0 -64 -0.5t-65.5 -3.5t-67.5 -10t-53.5 -18.5t-41 -30.5t-13.5 -45zM227 873l77 78l178 -208l-47 -48z" />
<glyph unicode="&#xe1;" horiz-adv-x="720" d="M55 188q0 47 19 83.5t54.5 58.5t74 36.5t91 20.5t90.5 8t87 2q35 0 59 -2l-12 12v6t-1 6q-8 115 -160 115q-119 0 -191 -60l-77 79q111 86 268 86q55 0 102 -11.5t88 -37t64.5 -72.5t23.5 -112v-406h-117v48h-2q-74 -59 -191 -59q-51 0 -96.5 10.5t-86 32t-64 62 t-23.5 94.5zM171 188q0 -35 26.5 -57.5t59 -29.5t68.5 -7q27 0 55.5 3.5t62 12.5t54.5 29.5t21 48.5v94l12 12q-5 0 -25.5 1t-28.5 1q-40 0 -64 -0.5t-65.5 -3.5t-67.5 -10t-53.5 -18.5t-41 -30.5t-13.5 -45zM249 743l177 208l78 -78l-208 -178z" />
<glyph unicode="&#xe2;" horiz-adv-x="720" d="M55 188q0 47 19 83.5t54.5 58.5t74 36.5t91 20.5t90.5 8t87 2q35 0 59 -2l-12 12v6t-1 6q-8 115 -160 115q-119 0 -191 -60l-77 79q111 86 268 86q55 0 102 -11.5t88 -37t64.5 -72.5t23.5 -112v-406h-117v48h-2q-74 -59 -191 -59q-51 0 -96.5 10.5t-86 32t-64 62 t-23.5 94.5zM157 743l188 187h2l187 -187l-47 -47l-141 115l-2 -1l-140 -114zM171 188q0 -35 26.5 -57.5t59 -29.5t68.5 -7q27 0 55.5 3.5t62 12.5t54.5 29.5t21 48.5v94l12 12q-5 0 -25.5 1t-28.5 1q-40 0 -64 -0.5t-65.5 -3.5t-67.5 -10t-53.5 -18.5t-41 -30.5t-13.5 -45z " />
<glyph unicode="&#xe3;" horiz-adv-x="720" d="M55 188q0 47 19 83.5t54.5 58.5t74 36.5t91 20.5t90.5 8t87 2q35 0 59 -2l-12 12v6t-1 6q-8 115 -160 115q-119 0 -191 -60l-77 79q111 86 268 86q55 0 102 -11.5t88 -37t64.5 -72.5t23.5 -112v-406h-117v48h-2q-74 -59 -191 -59q-51 0 -96.5 10.5t-86 32t-64 62 t-23.5 94.5zM112 764q12 44 53 78.5t91 34.5q24 0 50.5 -11.5t55 -29.5t44.5 -24q22 -11 39 -11q29 0 51.5 20.5t33.5 56.5l53 -53q-15 -49 -56 -81t-90 -32q-24 0 -49.5 11t-55.5 29.5t-43 24.5q-23 10 -42 10q-58 0 -83 -76zM171 188q0 -27 15 -46.5t39 -29t49 -14 t51 -4.5q27 0 55.5 3.5t62 12.5t54.5 29.5t21 48.5v94l12 12q-5 0 -25.5 1t-28.5 1q-29 0 -47 -0.5t-49 -1.5t-52 -4t-47.5 -8t-44 -13t-33.5 -19t-24 -27t-8 -35z" />
<glyph unicode="&#xe4;" horiz-adv-x="720" d="M55 188q0 47 19 83.5t54.5 58.5t74 36.5t91 20.5t90.5 8t87 2q35 0 59 -2l-12 12v6t-1 6q-8 115 -160 115q-119 0 -191 -60l-77 79q111 86 268 86q55 0 102 -11.5t88 -37t64.5 -72.5t23.5 -112v-406h-117v48h-2q-74 -59 -191 -59q-51 0 -96.5 10.5t-86 32t-64 62 t-23.5 94.5zM162 778q0 32 16.5 51.5t47.5 19.5q32 0 48.5 -19t16.5 -52q0 -32 -17 -51.5t-48 -19.5t-47.5 19.5t-16.5 51.5zM171 188q0 -35 26.5 -57.5t59 -29.5t68.5 -7q27 0 55.5 3.5t62 12.5t54.5 29.5t21 48.5v94l12 12q-5 0 -25.5 1t-28.5 1q-40 0 -64 -0.5 t-65.5 -3.5t-67.5 -10t-53.5 -18.5t-41 -30.5t-13.5 -45zM406 778q0 32 16.5 51.5t47.5 19.5q32 0 48.5 -19t16.5 -52q0 -32 -17 -51.5t-48 -19.5t-47.5 19.5t-16.5 51.5z" />
<glyph unicode="&#xe5;" horiz-adv-x="720" d="M55 188q0 47 19 83.5t54.5 58.5t74 36.5t91 20.5t90.5 8t87 2q35 0 59 -2l-12 12v6t-1 6q-8 115 -160 115q-119 0 -191 -60l-77 79q111 86 268 86q55 0 102 -11.5t88 -37t64.5 -72.5t23.5 -112v-406h-117v48h-2q-74 -59 -191 -59q-51 0 -96.5 10.5t-86 32t-64 62 t-23.5 94.5zM171 188q0 -35 26.5 -57.5t59 -29.5t68.5 -7q27 0 55.5 3.5t62 12.5t54.5 29.5t21 48.5v94l12 12q-5 0 -25.5 1t-28.5 1q-40 0 -64 -0.5t-65.5 -3.5t-67.5 -10t-53.5 -18.5t-41 -30.5t-13.5 -45zM242 812q0 52 29 84.5t84 32.5t84.5 -32.5t29.5 -84.5t-30 -84.5 t-84 -32.5q-55 0 -84 32.5t-29 84.5zM303 812q0 -25 13.5 -40.5t38.5 -15.5q52 0 52 56t-52 56t-52 -56z" />
<glyph unicode="&#xe6;" horiz-adv-x="1163" d="M55 187q0 48 18.5 84.5t53 58t72 36t89 20.5t88.5 8t85 2q46 0 58 -2l-11 14q0 66 -43 96.5t-115 30.5q-122 0 -194 -67l-79 77q113 94 273 94q161 0 232 -107l1 1q36 48 95.5 77.5t129.5 29.5q147 0 223.5 -91t76.5 -239q0 -7 -0.5 -13t-1 -15t-0.5 -18h-496l12 -13 q31 -156 191 -156q96 0 169 72l79 -77q-103 -100 -249 -100q-145 0 -235 100h-1q-74 -101 -258 -101q-68 0 -124.5 17t-97.5 63.5t-41 117.5zM167 187q0 -50 46.5 -71.5t104.5 -21.5q28 0 55.5 3.5t60.5 12t53.5 29t20.5 49.5v93l11 14q-6 0 -25.5 0.5t-27.5 0.5h-47 t-48 -1.5t-51 -4.5t-46 -7.5t-43.5 -13t-32.5 -19.5t-23.5 -27t-7.5 -36zM612 366h392l-15 13q-14 73 -59 114.5t-122 41.5t-123.5 -42t-61.5 -114z" />
<glyph unicode="&#xe7;" horiz-adv-x="641" d="M55 310q0 144 83.5 237t229.5 93q149 0 239 -88l-78 -77q-60 60 -160 60q-95 -1 -146 -64.5t-51 -160.5q0 -95 48 -155t147 -60q101 0 167 67l77 -77q-88 -86 -213 -94l1 -2l12 -11q48 -45 0 -95l-91 -91l-56 55l66 66q33 33 10 56l-23 24q-129 14 -195.5 100.5 t-66.5 216.5z" />
<glyph unicode="&#xe8;" horiz-adv-x="730" d="M55 310q0 147 83.5 238.5t228.5 91.5q151 0 229.5 -91t78.5 -239q0 -22 -3 -46h-507l12 -12q29 -158 195 -158q95 0 171 71l80 -80q-104 -95 -251 -95q-156 0 -236.5 88.5t-80.5 231.5zM166 366h399l-12 12q-14 75 -60.5 116.5t-125.5 41.5q-154 0 -188 -158zM223 873 l77 78l178 -208l-48 -48z" />
<glyph unicode="&#xe9;" horiz-adv-x="730" d="M55 310q0 147 83.5 238.5t228.5 91.5q151 0 229.5 -91t78.5 -239q0 -22 -3 -46h-507l12 -12q29 -158 195 -158q95 0 171 71l80 -80q-104 -95 -251 -95q-156 0 -236.5 88.5t-80.5 231.5zM166 366h399l-12 12q-14 75 -60.5 116.5t-125.5 41.5q-154 0 -188 -158zM253 743 l177 208l78 -78l-208 -178z" />
<glyph unicode="&#xea;" horiz-adv-x="730" d="M55 310q0 147 83.5 238.5t228.5 91.5q151 0 229.5 -91t78.5 -239q0 -22 -3 -46h-507l12 -12q29 -158 195 -158q95 0 171 71l80 -80q-104 -95 -251 -95q-156 0 -236.5 88.5t-80.5 231.5zM166 366h399l-12 12q-14 75 -60.5 116.5t-125.5 41.5q-154 0 -188 -158zM179 743 l188 187h2l187 -187l-47 -47l-142 115q-27 -22 -77.5 -63t-63.5 -52z" />
<glyph unicode="&#xeb;" horiz-adv-x="730" d="M55 310q0 147 83.5 238.5t228.5 91.5q151 0 229.5 -91t78.5 -239q0 -22 -3 -46h-507l12 -12q29 -158 195 -158q95 0 171 71l80 -80q-104 -95 -251 -95q-156 0 -236.5 88.5t-80.5 231.5zM166 366h399l-12 12q-14 75 -60.5 116.5t-125.5 41.5q-154 0 -188 -158zM179 778 q0 32 16.5 51.5t47.5 19.5q32 0 48.5 -19t16.5 -52q0 -32 -17 -51.5t-48 -19.5t-47.5 19.5t-16.5 51.5zM423 778q0 32 16.5 51.5t47.5 19.5q32 0 48.5 -19t16.5 -52q0 -32 -17 -51.5t-48 -19.5t-47.5 19.5t-16.5 51.5z" />
<glyph unicode="&#xec;" horiz-adv-x="297" d="M10 873l77 78l178 -208l-48 -48zM90 0v630h117v-630h-117z" />
<glyph unicode="&#xed;" horiz-adv-x="297" d="M27 743l177 208l78 -78l-208 -178zM90 0v630h117v-630h-117z" />
<glyph unicode="&#xee;" horiz-adv-x="297" d="M-39 743l188 187h2l187 -187l-47 -47l-142 115q-27 -22 -77.5 -63t-63.5 -52zM90 0v630h117v-630h-117z" />
<glyph unicode="&#xef;" horiz-adv-x="297" d="M-38 778q0 32 17 51.5t48 19.5q32 0 48.5 -19t16.5 -52q0 -32 -17 -51.5t-48 -19.5t-48 19.5t-17 51.5zM90 0v630h117v-630h-117zM206 778q0 32 17 51.5t48 19.5q32 0 48.5 -19t16.5 -52q0 -32 -17 -51.5t-48 -19.5t-48 19.5t-17 51.5z" />
<glyph unicode="&#xf0;" horiz-adv-x="675" d="M50 296q0 135 73 220.5t209 85.5q27 0 47 -4l-48 73l-1 12l-84 -51l-47 76l82 50l-10 5l-53 83h126l18 -27l2 -11l71 44l50 -76l-74 -44l10 -5l145 -223q54 -84 54 -208q0 -135 -74.5 -220.5t-210.5 -85.5q-137 0 -211 85t-74 221zM158 293q0 -91 44.5 -145t132.5 -54 t132.5 53.5t44.5 145.5t-44.5 148.5t-132.5 56.5t-132.5 -56t-44.5 -149z" />
<glyph unicode="&#xf1;" horiz-adv-x="753" d="M90 0v630h117v-68h2q32 36 84.5 57t108.5 21q124 0 195 -63.5t71 -178.5v-398h-117v380q0 76 -34 115.5t-129 39.5q-80 0 -130.5 -42.5t-50.5 -120.5v-372h-117zM148 764q12 44 53 78.5t91 34.5q24 0 50.5 -11.5t55 -29.5t44.5 -24q22 -11 39 -11q29 0 51.5 20.5 t33.5 56.5l53 -53q-15 -49 -56 -81t-90 -32q-24 0 -49.5 11t-55.5 29.5t-43 24.5q-23 10 -42 10q-58 0 -83 -76z" />
<glyph unicode="&#xf2;" horiz-adv-x="730" d="M55 315q0 145 80 235t229 90q151 0 231 -89t80 -236q0 -144 -80.5 -234.5t-229.5 -90.5q-151 0 -230.5 89.5t-79.5 235.5zM172 315q0 -99 48 -159.5t145 -60.5t145 60t48 160q0 99 -48 159.5t-145 60.5q-98 0 -145.5 -60t-47.5 -160zM215 873l77 78l178 -208l-47 -48z " />
<glyph unicode="&#xf3;" horiz-adv-x="730" d="M55 315q0 145 80 235t229 90q151 0 231 -89t80 -236q0 -144 -80.5 -234.5t-229.5 -90.5q-151 0 -230.5 89.5t-79.5 235.5zM172 315q0 -99 48 -159.5t145 -60.5t145 60t48 160q0 99 -48 159.5t-145 60.5q-98 0 -145.5 -60t-47.5 -160zM253 743l177 208l78 -78l-208 -178z " />
<glyph unicode="&#xf4;" horiz-adv-x="730" d="M55 315q0 145 80 235t229 90q151 0 231 -89t80 -236q0 -144 -80.5 -234.5t-229.5 -90.5q-151 0 -230.5 89.5t-79.5 235.5zM172 315q0 -99 48 -159.5t145 -60.5t145 60t48 160q0 99 -48 159.5t-145 60.5q-98 0 -145.5 -60t-47.5 -160zM177 743l188 187h2l187 -187l-47 -47 l-142 115q-27 -22 -77.5 -63t-63.5 -52z" />
<glyph unicode="&#xf5;" horiz-adv-x="730" d="M55 315q0 145 80 235t229 90q151 0 231 -89t80 -236q0 -144 -80.5 -234.5t-229.5 -90.5q-151 0 -230.5 89.5t-79.5 235.5zM124 764q12 44 53 78.5t91 34.5q24 0 50.5 -11.5t55 -29.5t44.5 -24q22 -11 39 -11q29 0 51.5 20.5t33.5 56.5l53 -53q-15 -49 -56 -81t-90 -32 q-24 0 -49.5 11t-55.5 29.5t-43 24.5q-23 10 -42 10q-58 0 -83 -76zM172 315q0 -99 48 -159.5t145 -60.5t145 60t48 160q0 99 -48 159.5t-145 60.5q-98 0 -145.5 -60t-47.5 -160z" />
<glyph unicode="&#xf6;" horiz-adv-x="730" d="M55 315q0 145 80 235t229 90q151 0 231 -89t80 -236q0 -144 -80.5 -234.5t-229.5 -90.5q-151 0 -230.5 89.5t-79.5 235.5zM172 315q0 -99 48 -159.5t145 -60.5t145 60t48 160q0 99 -48 159.5t-145 60.5q-98 0 -145.5 -60t-47.5 -160zM178 778q0 32 17 51.5t48 19.5 q32 0 48.5 -19t16.5 -52q0 -32 -17 -51.5t-48 -19.5t-48 19.5t-17 51.5zM422 778q0 32 17 51.5t48 19.5q32 0 48.5 -19t16.5 -52q0 -32 -17 -51.5t-48 -19.5t-48 19.5t-17 51.5z" />
<glyph unicode="&#xf7;" horiz-adv-x="675" d="M85 350v110h505v-110h-505zM257 176q0 41 21 65t60 24q40 0 61 -24t21 -65q0 -40 -21.5 -64t-60.5 -24t-60 24t-21 64zM257 634q0 40 21 64t60 24q40 0 61 -23.5t21 -64.5t-21.5 -65t-60.5 -24t-60 24t-21 65z" />
<glyph unicode="&#xf8;" horiz-adv-x="705" d="M55 315q0 146 76.5 235.5t220.5 89.5q79 0 138 -28l1 10l39 69l61 -36l-40 -69l-9 -4q108 -91 108 -267q0 -145 -76.5 -235t-220.5 -90q-80 0 -136 26v-11l-40 -69l-60 36l40 69l10 6q-112 87 -112 268zM166 315q0 -111 57 -169l3 15l200 349l11 7q-37 16 -85 16 q-94 0 -140 -59t-46 -159zM273 112q31 -15 80 -15q94 0 140 59t46 159q0 108 -54 167l-2 -13l-199 -348z" />
<glyph unicode="&#xf9;" horiz-adv-x="745" d="M85 241v389h117v-385q0 -73 33 -111.5t126 -38.5q79 0 128 42.5t49 120.5v372h117v-630h-117v68h-2q-72 -78 -189 -78q-134 0 -198 65.5t-64 185.5zM223 873l77 78l178 -208l-48 -48z" />
<glyph unicode="&#xfa;" horiz-adv-x="745" d="M85 241v389h117v-385q0 -73 33 -111.5t126 -38.5q79 0 128 42.5t49 120.5v372h117v-630h-117v68h-2q-72 -78 -189 -78q-134 0 -198 65.5t-64 185.5zM261 743l177 208l78 -78l-208 -178z" />
<glyph unicode="&#xfb;" horiz-adv-x="745" d="M85 241v389h117v-385q0 -73 33 -111.5t126 -38.5q79 0 128 42.5t49 120.5v372h117v-630h-117v68h-2q-72 -78 -189 -78q-134 0 -198 65.5t-64 185.5zM179 743l188 187h2l187 -187l-47 -47l-142 115q-27 -22 -77.5 -63t-63.5 -52z" />
<glyph unicode="&#xfc;" horiz-adv-x="745" d="M85 241v389h117v-385q0 -73 33 -111.5t126 -38.5q79 0 128 42.5t49 120.5v372h117v-630h-117v68h-2q-72 -78 -189 -78q-134 0 -198 65.5t-64 185.5zM183 778q0 32 17 51.5t48 19.5q32 0 48.5 -19t16.5 -52q0 -32 -17 -51.5t-48 -19.5t-48 19.5t-17 51.5zM427 778 q0 32 17 51.5t48 19.5q32 0 48.5 -19t16.5 -52q0 -32 -17 -51.5t-48 -19.5t-48 19.5t-17 51.5z" />
<glyph unicode="&#xfd;" horiz-adv-x="700" d="M15 630h130l189 -428l26 -76h2l25 77l168 427h130l-291 -695q-29 -70 -80 -110t-114 -40q-74 0 -131 29v112q62 -33 118 -33q71 0 116 107zM239 743l177 208l78 -78l-208 -178z" />
<glyph unicode="&#xfe;" horiz-adv-x="753" d="M90 -210v1050h117v-275h2q69 75 185 75q149 0 226.5 -89.5t77.5 -236.5q0 -148 -76.5 -236t-227.5 -88q-115 0 -185 71h-2v-271h-117zM199 314q0 -102 46 -161t145 -59q98 0 144.5 59.5t46.5 160.5q0 102 -46 161.5t-145 59.5q-98 0 -144.5 -60t-46.5 -161z" />
<glyph unicode="&#xff;" horiz-adv-x="700" d="M15 630h130l186 -417l28 -85h2l27 85l167 417h130l-292 -695q-29 -70 -80 -110t-114 -40q-73 0 -130 29v112q62 -33 118 -33q69 0 115 113zM155 778q0 32 17 51.5t48 19.5q32 0 48.5 -19t16.5 -52q0 -32 -17 -51.5t-48 -19.5t-48 19.5t-17 51.5zM399 778q0 32 17 51.5 t48 19.5q32 0 48.5 -19t16.5 -52q0 -32 -17 -51.5t-48 -19.5t-48 19.5t-17 51.5z" />
<glyph unicode="&#x152;" horiz-adv-x="1117" d="M55 400q0 188 83 304t237 116q117 0 186 -70h1v60h485v-111h-372l7 -12v-215l-7 -11h334v-112h-334l7 -13v-212l-7 -13h372v-111h-485v59q-69 -69 -187 -69q-155 0 -237.5 111.5t-82.5 298.5zM178 400q0 -136 50 -217.5t147 -81.5q98 0 147.5 81.5t49.5 217.5 q0 137 -50 223t-147 86t-147 -85t-50 -224z" />
<glyph unicode="&#x153;" horiz-adv-x="1202" d="M55 315q0 145 78 235t224 90q169 0 248 -121l2 1q73 120 240 120q147 0 223.5 -91t76.5 -239q0 -7 -0.5 -13t-1 -15t-0.5 -18h-497l13 -12q30 -157 190 -157q99 0 170 70l78 -79q-96 -96 -248 -96q-174 0 -253 118l-1 -1q-67 -117 -240 -117q-147 0 -224.5 89.5 t-77.5 235.5zM167 315q0 -99 48 -159.5t143 -60.5q96 0 143 60t47 160t-47.5 160t-143.5 60t-143 -60t-47 -160zM649 366h392l-13 13q-14 72 -59.5 114t-121.5 42q-78 0 -124 -42t-61 -114z" />
<glyph unicode="&#x178;" horiz-adv-x="840" d="M15 810h151l201 -284l52 -87h2l51 88l203 283h150l-344 -472v-338h-121v338zM231 971q0 32 17 51.5t48 19.5t48 -19.5t17 -51.5t-17 -51.5t-48 -19.5t-48 19.5t-17 51.5zM475 971q0 32 17 51.5t48 19.5t48 -19.5t17 -51.5t-17 -51.5t-48 -19.5t-48 19.5t-17 51.5z" />
<glyph unicode="&#x2c6;" horiz-adv-x="725" d="M168 743l188 187h2l187 -187l-47 -47l-142 115q-27 -22 -77.5 -63t-63.5 -52z" />
<glyph unicode="&#x2dc;" horiz-adv-x="720" d="M112 764q12 44 53 78.5t91 34.5q24 0 50.5 -11.5t55 -29.5t44.5 -24q22 -11 39 -11q29 0 51.5 20.5t33.5 56.5l53 -53q-15 -49 -56 -81t-90 -32q-24 0 -49.5 11t-55.5 29.5t-43 24.5q-23 10 -42 10q-58 0 -83 -76z" />
<glyph unicode="&#x2000;" horiz-adv-x="565" />
<glyph unicode="&#x2001;" horiz-adv-x="1130" />
<glyph unicode="&#x2002;" horiz-adv-x="565" />
<glyph unicode="&#x2003;" horiz-adv-x="1130" />
<glyph unicode="&#x2004;" horiz-adv-x="376" />
<glyph unicode="&#x2005;" horiz-adv-x="282" />
<glyph unicode="&#x2006;" horiz-adv-x="188" />
<glyph unicode="&#x2007;" horiz-adv-x="188" />
<glyph unicode="&#x2008;" horiz-adv-x="141" />
<glyph unicode="&#x2009;" horiz-adv-x="226" />
<glyph unicode="&#x200a;" horiz-adv-x="62" />
<glyph unicode="&#x2010;" horiz-adv-x="405" d="M30 275v110h345v-110h-345z" />
<glyph unicode="&#x2011;" horiz-adv-x="405" d="M30 275v110h345v-110h-345z" />
<glyph unicode="&#x2012;" horiz-adv-x="405" d="M30 275v110h345v-110h-345z" />
<glyph unicode="&#x2013;" horiz-adv-x="614" d="M30 275v110h554v-110h-554z" />
<glyph unicode="&#x2014;" horiz-adv-x="889" d="M30 275v110h829v-110h-829z" />
<glyph unicode="&#x2018;" horiz-adv-x="244" d="M45 574q0 24 14 56l83 195l57 -24l-55 -132l-14 -11q69 -9 69 -84q0 -38 -20 -61.5t-57 -23.5t-57 23t-20 62z" />
<glyph unicode="&#x2019;" horiz-adv-x="244" d="M45 508l55 132l14 12q-69 7 -69 84q0 38 20 61t57 23t57 -22.5t20 -61.5q0 -27 -14 -57l-83 -195z" />
<glyph unicode="&#x201a;" horiz-adv-x="244" d="M45 72q0 38 20 61t57 23t57 -22.5t20 -61.5q0 -27 -14 -57l-83 -195l-57 24l55 132l14 12q-69 7 -69 84z" />
<glyph unicode="&#x201c;" horiz-adv-x="438" d="M45 574q0 24 14 56l83 195l57 -24l-55 -132l-14 -11q69 -9 69 -84q0 -38 -20 -61.5t-57 -23.5t-57 23t-20 62zM239 574q0 24 14 56l83 195l57 -24l-55 -132l-13 -11q68 -9 68 -84q0 -39 -20 -62t-57 -23t-57 23t-20 62z" />
<glyph unicode="&#x201d;" horiz-adv-x="438" d="M45 508l55 132l14 12q-69 7 -69 84q0 38 20 61t57 23t57 -22.5t20 -61.5q0 -27 -14 -57l-83 -195zM239 508l55 132l14 12q-69 7 -69 84q0 38 20 61t57 23t57 -22.5t20 -61.5q0 -25 -13 -57l-84 -195z" />
<glyph unicode="&#x201e;" horiz-adv-x="438" d="M45 73q0 38 20 61t57 23t57 -22.5t20 -61.5q0 -27 -14 -57l-83 -195l-57 24l55 132l14 12q-69 7 -69 84zM239 73q0 38 20 61t57 23t57 -22.5t20 -61.5q0 -25 -13 -57l-84 -195l-57 24l55 132l14 12q-69 7 -69 84z" />
<glyph unicode="&#x2022;" horiz-adv-x="387" d="M0 405q0 61 43.5 104.5t105.5 43.5q61 0 104.5 -43.5t43.5 -104.5q0 -62 -43 -105.5t-105 -43.5t-105.5 43.5t-43.5 105.5z" />
<glyph unicode="&#x2026;" horiz-adv-x="854" d="M60 74q0 38 20 61.5t57 23.5t57 -23t20 -62q0 -38 -20 -61t-57 -23t-57 22.5t-20 61.5zM345 74q0 38 20 61.5t57 23.5t57 -23t20 -62q0 -38 -20 -61t-57 -23t-57 22.5t-20 61.5zM630 74q0 38 20 61.5t57 23.5t57 -23t20 -62q0 -38 -20 -61t-57 -23t-57 22.5t-20 61.5z " />
<glyph unicode="&#x202f;" horiz-adv-x="226" />
<glyph unicode="&#x2039;" horiz-adv-x="399" d="M55 255l212 210l77 -78l-89 -89l-56 -43q1 -1 1 -2l55 -41l89 -89l-77 -78z" />
<glyph unicode="&#x203a;" horiz-adv-x="399" d="M55 123l89 89q48 37 56 42l-27 20q-30 25 -118 113l77 78l212 -210l-212 -210z" />
<glyph unicode="&#x205f;" horiz-adv-x="282" />
<glyph unicode="&#x20ac;" horiz-adv-x="745" d="M40 265v99h72l-7 11v25q0 24 1 35l7 11h-73v99h88l-5 11q31 123 110.5 193.5t196.5 70.5q169 0 255 -127l-81 -84q-56 102 -174 102q-67 0 -115 -42t-71 -113l-10 -11h282v-99h-301l7 -11q-1 -11 -1 -35v-25l-6 -11h301v-99h-284l9 -11q22 -72 69.5 -113.5t118.5 -41.5 q116 0 175 101l80 -82q-88 -128 -255 -128q-121 0 -200.5 70.5t-107.5 193.5l4 11h-85z" />
<glyph unicode="&#x2122;" horiz-adv-x="855" d="M30 756v53h348v-53h-146l1 -352h-58v347l1 5h-146zM418 404v405h51q26 -52 75 -146.5t62 -119.5l15 -37q4 8 8.5 17.5t10 21t8.5 17.5l126 247h51v-405h-58v273q-6 -13 -17.5 -37.5t-13.5 -28.5l-111 -212h-8l-125 239l-16 39l-1 -1v-272h-57z" />
<glyph unicode="&#x25fc;" horiz-adv-x="630" d="M0 0v630h630v-630h-630z" />
<glyph unicode="&#xfb01;" horiz-adv-x="728" d="M30 529v101h81l-6 12q0 97 54.5 150t156.5 53q54 0 96 -16v-104q-43 17 -87 17q-103 0 -103 -100l-6 -12h422v-630h-117v529h-305l6 -12v-517h-117v517l6 12h-81zM510 772q0 32 19 53t51 21t51 -20.5t19 -53.5q0 -32 -19 -53t-51 -21t-51 20.5t-19 53.5z" />
<glyph unicode="&#xfb02;" horiz-adv-x="723" d="M30 529v101h81l-6 12q0 91 55.5 144t158.5 53l314 1v-840h-117v736l-191 1q-40 0 -72 -22t-32 -68v-6l-5 -11h196v-101h-196l6 -12v-517h-117v517l6 12h-81z" />
</font>
</defs>
</svg>
