<?xml version="1.0" standalone="no"?>
<!DOCTYPE svg PUBLIC "-//W3C//DTD SVG 1.1//EN" "http://www.w3.org/Graphics/SVG/1.1/DTD/svg11.dtd" >
<svg xmlns="http://www.w3.org/2000/svg">
<metadata></metadata>
<defs>
<font id="sinkin_sans300_light" horiz-adv-x="1392" >
<font-face units-per-em="2048" ascent="1659" descent="-389" />
<missing-glyph horiz-adv-x="634" />
<glyph horiz-adv-x="2048" />
<glyph horiz-adv-x="2048" />
<glyph horiz-adv-x="682" />
<glyph unicode="&#x9;" horiz-adv-x="2048" />
<glyph unicode="&#xa;" horiz-adv-x="2048" />
<glyph unicode="&#xd;" horiz-adv-x="2048" />
<glyph horiz-adv-x="2048" />
<glyph horiz-adv-x="2048" />
<glyph horiz-adv-x="2048" />
<glyph horiz-adv-x="2048" />
<glyph horiz-adv-x="2048" />
<glyph horiz-adv-x="2048" />
<glyph horiz-adv-x="2048" />
<glyph unicode=" "  horiz-adv-x="634" />
<glyph unicode="&#x09;" horiz-adv-x="634" />
<glyph unicode="&#xa0;" horiz-adv-x="634" />
<glyph unicode="!" horiz-adv-x="565" d="M143 135q0 70 37 112t103 42q67 0 103 -41.5t36 -112.5q0 -72 -36.5 -113.5t-102.5 -41.5q-68 0 -104 41.5t-36 113.5zM190 1659h183l-49 -1245h-84z" />
<glyph unicode="&#x22;" horiz-adv-x="712" d="M113 1720h166l-48 -592h-71zM434 1720h166l-47 -592h-72z" />
<glyph unicode="#" horiz-adv-x="1425" d="M61 440v150h261l-3 18l113 443l14 18h-227v150h264l-6 18l111 422h127l-109 -422l-12 -18h436l-4 20l111 420h127l-109 -420l-12 -20h221v-150h-260l4 -18l-115 -443l-12 -18h225v-150h-264l4 -16l-110 -424h-127l108 422l12 18h-434l4 -18l-110 -422h-127l108 420l15 20 h-224zM434 590h436l-4 18l115 443l14 18h-440l4 -18l-110 -443z" />
<glyph unicode="$" horiz-adv-x="1445" d="M113 213l118 111q116 -103 217 -150.5t232 -54.5l-8 14v559l8 13q-25 7 -61.5 16t-40.5 10q-224 62 -328.5 147.5t-104.5 235.5q0 75 31.5 142t94 123t168 91t241.5 39l-8 17v192h108v-194l-8 -17q288 -19 479 -213l-112 -108q-75 82 -161 128t-206 56l8 -14v-514l-8 -13 q23 -6 54.5 -14.5t53 -14t29.5 -7.5q394 -103 394 -400q0 -61 -16 -115.5t-55 -107.5t-98.5 -92t-152 -65t-209.5 -31l8 -15v-192h-108v192l8 15q-355 16 -567 231zM299 1122q0 -96 83 -153t275 -109l23 -6l-8 18v486l8 14q-187 -7 -284 -76.5t-97 -173.5zM770 119 q188 10 284.5 79.5t96.5 182.5q0 195 -291 274l-90 25l10 -14v-533z" />
<glyph unicode="%" horiz-adv-x="1746" d="M61 1210q0 134 38.5 239.5t117.5 168.5t186 63q163 0 254 -132.5t91 -338.5q0 -205 -89.5 -331.5t-255.5 -126.5q-165 0 -253.5 126.5t-88.5 331.5zM201 1210q0 -147 49 -234t153 -87q106 0 155.5 85.5t49.5 235.5q0 332 -202 332q-205 0 -205 -332zM508 -20l596 1699 h139l-596 -1699h-139zM999 436q0 134 39 239.5t118 168.5t187 63q163 0 253 -132t90 -339q0 -204 -89 -331.5t-254 -127.5t-254.5 127.5t-89.5 331.5zM1139 436q0 -147 49 -233t153 -86q106 0 155.5 84.5t49.5 234.5q0 332 -203 332q-204 0 -204 -332z" />
<glyph unicode="&#x26;" horiz-adv-x="1495" d="M113 414q0 149 115 267.5t327 223.5l-20 6q-79 90 -97 117q-38 44 -55 80q-49 84 -49 188q0 158 112 268.5t271 110.5q162 0 275.5 -110.5t113.5 -268.5q0 -75 -24 -135.5t-75 -111.5t-115 -92.5t-159 -88.5l21 -10q362 -415 450 -522l6 -17q68 100 68 193h149 q-2 -65 -37.5 -146.5t-93.5 -146.5l11 -4l188 -215h-172l-104 121l-5 16q-185 -162 -495 -162q-273 0 -439.5 118t-166.5 321zM268 414q0 -103 62.5 -172t161.5 -99t229 -30q127 0 224 31t177 100l-16 8l-475 549l-2 18q-102 -57 -135 -78q-69 -44 -111 -79 q-115 -106 -115 -248zM467 1290q0 -85 63 -170q15 -20 46 -57.5t55 -64.5l24 -27l2 -17q47 23 73 36.5t64.5 36t60 40t47 43.5t38.5 51.5t22 59t9 71.5q0 103 -73.5 175.5t-176.5 72.5q-106 0 -180 -72.5t-74 -177.5z" />
<glyph unicode="'" horiz-adv-x="391" d="M113 1720h166l-48 -592h-71z" />
<glyph unicode="(" horiz-adv-x="495" d="M82 733q0 576 293 1125h100q-246 -536 -246 -1098q0 -629 246 -1151h-100q-154 290 -223.5 560.5t-69.5 563.5z" />
<glyph unicode=")" horiz-adv-x="495" d="M20 -391q246 522 246 1151q0 568 -246 1098h101q293 -549 293 -1125q0 -293 -69.5 -563.5t-223.5 -560.5h-101z" />
<glyph unicode="*" horiz-adv-x="1169" d="M113 1206l397 70l-328 233l68 86l301 -266l-21 402h111l-23 -404l300 268l69 -86l-328 -233l398 -70l-25 -108l-385 110l191 -352l-99 -49l-155 373l-156 -373l-98 47l194 352l-387 -108z" />
<glyph unicode="+" horiz-adv-x="1378" d="M184 758v143h443l-6 14v463h139v-463l-8 -14h442v-143h-442l8 -15v-460h-139v460l6 15h-443z" />
<glyph unicode="," horiz-adv-x="544" d="M123 135q0 70 36.5 112t102.5 42q67 0 103 -41.5t36 -112.5q0 -52 -24 -98l-160 -334l-94 41l106 223l19 15q-62 4 -93.5 45t-31.5 108z" />
<glyph unicode="-" horiz-adv-x="768" d="M61 594v143h646v-143h-646z" />
<glyph unicode="." horiz-adv-x="544" d="M123 135q0 70 36.5 112t102.5 42q67 0 103 -41.5t36 -112.5q0 -72 -36.5 -113.5t-102.5 -41.5q-68 0 -103.5 41.5t-35.5 113.5z" />
<glyph unicode="/" horiz-adv-x="444" d="M-143 -102l594 1863h137l-594 -1863h-137z" />
<glyph unicode="0" horiz-adv-x="1495" d="M113 819q0 256 75 449.5t219.5 302t340.5 108.5q200 0 344 -108t217 -301t73 -451t-71 -445t-214.5 -290.5t-348.5 -103.5q-204 0 -348 103.5t-215.5 291t-71.5 444.5zM262 819q0 -117 15 -218t51 -191.5t90.5 -154.5t137.5 -101t189 -37t189.5 35.5t139 98t92 152 t52 192t15.5 224.5q0 118 -13.5 218.5t-48 195.5t-88 162t-139 107t-196.5 40q-105 0 -188.5 -39t-138.5 -105t-91.5 -159.5t-52 -197t-15.5 -222.5z" />
<glyph unicode="1" horiz-adv-x="759" d="M41 1268l391 391h123v-1659h-143v1356l12 153h-4l-105 -135l-190 -192z" />
<glyph unicode="2" horiz-adv-x="1343" d="M113 254q-2 120 38.5 226t133.5 195.5t229 137.5l223 80q183 66 263.5 146.5t80.5 197.5q0 62 -21.5 115.5t-66.5 97t-123 68t-182 24.5q-274 0 -434 -205l-104 111q202 231 538 231q114 0 207 -25.5t154.5 -68t103 -100t60 -119.5t18.5 -129q0 -159 -94.5 -274.5 t-313.5 -194.5l-264 -96q-147 -52 -224 -164.5t-77 -271.5q0 -6 1 -42t1 -42l-14 -15h983v-137h-1112z" />
<glyph unicode="3" horiz-adv-x="1382" d="M113 213l106 109q182 -205 451 -205q116 0 205.5 29t141 78t77.5 106t26 119q0 148 -104.5 239t-302.5 111q-73 8 -234 8v131q207 8 223 10q198 22 290.5 111t92.5 207q0 57 -23 105t-70.5 86.5t-129.5 60.5t-192 22q-266 0 -434 -192l-107 112q204 219 541 219 q122 0 220 -23.5t161.5 -62.5t106.5 -93t61 -112t18 -122q0 -121 -80 -220.5t-229 -160.5v-6q172 -56 257 -170t85 -260q0 -68 -19.5 -133t-65.5 -126.5t-113 -107.5t-170 -74t-230 -28q-346 0 -559 233z" />
<glyph unicode="4" horiz-adv-x="1423" d="M82 401v117l922 1141h122v-1106l-10 -14h225v-138h-225l10 -14v-387h-143v387l8 14h-909zM248 539h743l-8 14v674l10 223h-4l-106 -145l-527 -654l-108 -108v-4z" />
<glyph unicode="5" horiz-adv-x="1413" d="M113 256l100 104q93 -126 209 -185.5t264 -59.5q95 0 174 23.5t132 63.5t89.5 94t53 113t16.5 123q0 78 -26 150.5t-77.5 134t-139.5 98.5t-201 37q-291 0 -457 -190l-98 96l92 801h938v-137h-828l11 -15l-50 -381l-39 -184l5 -4q171 149 426 149q147 0 263 -45.5 t186.5 -123.5t107 -176t36.5 -210q0 -88 -21.5 -167.5t-69.5 -151t-118 -123.5t-174 -82.5t-231 -30.5q-193 0 -325.5 64t-247.5 215z" />
<glyph unicode="6" horiz-adv-x="1482" d="M113 791q0 106 15.5 209t47 204t84.5 186t123.5 150t169.5 102t217 37q171 0 304.5 -53.5t238.5 -175.5l-109 -111q-155 203 -434 203q-94 0 -172 -29.5t-133 -82t-95.5 -120t-64 -148t-35 -161.5t-10.5 -165v-39h4q172 290 510 290q147 0 264 -45.5t188.5 -123.5 t108.5 -176.5t35 -209.5q-1 -85 -24 -164t-72 -150.5t-119.5 -124.5t-173.5 -84.5t-227 -31.5q-207 0 -353 104t-217 285.5t-71 424.5zM303 530q-2 -75 27 -147.5t83.5 -133t144.5 -97.5t200 -37q105 0 194 36t147 95.5t91 133t35 150.5q1 75 -27 148t-81.5 135t-144 100.5 t-202.5 38.5q-107 0 -197.5 -38.5t-147.5 -100t-89 -135t-33 -148.5z" />
<glyph unicode="7" horiz-adv-x="1300" d="M61 1522v137h1178v-131l-444 -602q-104 -140 -146.5 -291.5t-42.5 -364.5v-270h-143v283q0 233 47 393.5t164 320.5l287 385l120 136v4h-1020z" />
<glyph unicode="8" horiz-adv-x="1488" d="M113 459q0 150 84 253.5t256 166.5v6q-145 69 -213 155.5t-68 212.5q0 65 18 124.5t61 115.5t106.5 96.5t161.5 65t220 24.5t221.5 -24.5t165.5 -65t110 -96t63.5 -115.5t19.5 -125q0 -125 -68.5 -209.5t-214.5 -158.5v-4q340 -128 340 -422q0 -67 -23 -133.5 t-73.5 -129.5t-122.5 -110.5t-178.5 -76.5t-233.5 -29t-234 29t-179 76.5t-122.5 110.5t-73.5 129t-23 134zM262 463q0 -62 31 -122t89 -110.5t152 -82t209 -31.5t209.5 31.5t153 82t90 111t31.5 121.5q0 151 -135 253.5t-349 102.5t-347.5 -103t-133.5 -253zM322 1239 q0 -54 26.5 -107t77 -98.5t133 -73.5t184.5 -28t185 28t134 73t78 98.5t27 107.5q0 58 -24 109.5t-72 95.5t-132 70t-194 26q-109 0 -193 -26t-133 -70t-73 -96t-24 -109z" />
<glyph unicode="9" horiz-adv-x="1482" d="M113 1114q0 176 82.5 306t220 194.5t311.5 64.5q138 0 248.5 -45t183.5 -121t121 -181t69 -220t21 -244q0 -106 -15.5 -209t-47 -204.5t-84.5 -186.5t-123.5 -151t-169.5 -103t-217 -37q-171 0 -304.5 54.5t-238.5 177.5l106 110q158 -204 437 -204q93 0 171 29.5t133 82 t96 120t64.5 148t35 161.5t10.5 165v41h-4q-178 -293 -510 -293q-168 0 -301.5 62.5t-214 188t-80.5 294.5zM258 1120q0 -123 63.5 -218.5t166.5 -145t225 -49.5q121 0 227.5 53t173 152.5t66.5 222.5q0 92 -37.5 169.5t-100 129t-145 80t-172.5 28.5q-121 0 -227 -51.5 t-173 -149.5t-67 -221z" />
<glyph unicode=":" horiz-adv-x="565" d="M143 133q0 70 37 112t103 42q67 0 103 -41.5t36 -112.5q0 -72 -36.5 -114t-102.5 -42q-68 0 -104 42t-36 114zM143 1094q0 70 37 111.5t103 41.5q67 0 103 -41t36 -112q0 -72 -36 -113t-103 -41q-68 0 -104 41t-36 113z" />
<glyph unicode=";" horiz-adv-x="565" d="M143 1096q0 70 37 111.5t103 41.5q67 0 103 -41t36 -112q0 -72 -36 -113t-103 -41q-68 0 -104 41t-36 113zM145 135q0 71 36 112.5t102 41.5q67 0 103 -41.5t36 -112.5q0 -46 -23 -98l-159 -334l-95 41l107 223l16 15q-61 4 -92 45t-31 108z" />
<glyph unicode="&#x3c;" horiz-adv-x="1003" d="M113 829l608 609l98 -103l-399 -389l-137 -115v-4l137 -114l399 -385l-100 -103z" />
<glyph unicode="=" horiz-adv-x="1382" d="M184 535v139h1014v-139h-1014zM184 985v139h1014v-139h-1014z" />
<glyph unicode="&#x3e;" horiz-adv-x="1003" d="M184 328l400 385l137 114v4l-137 115l-400 389l99 103l608 -609l-606 -604z" />
<glyph unicode="?" horiz-adv-x="1247" d="M113 1446q201 233 526 233q115 0 211.5 -38t157 -99.5t94 -134t33.5 -145.5q0 -127 -72.5 -225.5t-190.5 -145.5l-77 -33q-131 -54 -171 -128t-40 -236v-78h-144v96q0 65 4.5 113.5t16.5 96t34 84t56.5 71t83.5 64t115 56.5l47 19q99 39 143.5 98t44.5 148 q0 107 -102 193.5t-246 86.5q-257 0 -414 -205zM375 135q0 71 36 112.5t103 41.5q66 0 102.5 -42t36.5 -112q0 -71 -37 -113t-102 -42q-68 0 -103.5 41.5t-35.5 113.5z" />
<glyph unicode="@" horiz-adv-x="2027" d="M143 858q0 176 73.5 338.5t195.5 279t287 186t341 69.5q168 0 323.5 -64t269.5 -172.5t182.5 -261.5t68.5 -322q0 -99 -34 -201t-93.5 -186.5t-149 -138t-190.5 -53.5q-74 0 -134.5 36t-94.5 105h-4q-57 -69 -145 -107t-171 -38q-104 0 -179 57.5t-109.5 146.5t-34.5 197 q0 83 21.5 166.5t64 158t101 132t138 91.5t168.5 34q69 0 138 -40t96 -100h4l33 119h133l-133 -526q-23 -105 -23 -174q0 -60 45 -103t103 -43q68 0 124.5 31t93 80t62 111.5t36.5 123t11 117.5q0 145 -57 278.5t-153 231.5t-229 156.5t-278 58.5q-211 0 -391 -106 t-284.5 -285.5t-104.5 -388.5q0 -222 101.5 -406.5t282 -291.5t401.5 -107q213 0 401 121l78 -74q-104 -70 -226 -108.5t-241 -38.5q-193 0 -363 68.5t-292 188t-192.5 289.5t-70.5 365zM690 756q0 -307 215 -307q79 0 142 46t99.5 118t55.5 152t19 157q0 53 -8.5 97.5 t-29.5 87t-63.5 67t-103.5 24.5q-77 0 -141 -44.5t-103 -112.5t-60.5 -143t-21.5 -142z" />
<glyph unicode="A" horiz-adv-x="1644" d="M31 0l729 1659h127l727 -1659h-158l-186 420l6 14h-907l4 -14l-185 -420h-157zM430 571h784l-16 15l-328 747l-45 156h-4l-49 -156l-328 -749z" />
<glyph unicode="B" horiz-adv-x="1562" d="M184 0v1659h715q124 0 221 -35.5t156 -96.5t89 -138t30 -164q0 -109 -55 -203t-158 -145v-5q142 -51 215 -156.5t73 -256.5q0 -215 -140 -337t-412 -122h-734zM319 137h599q397 0 397 322q0 156 -101.5 241.5t-298.5 85.5h-596l15 -14v-618zM319 924h558q185 0 273.5 82 t88.5 219q0 149 -93 223t-269 74h-558l15 -17v-569z" />
<glyph unicode="C" horiz-adv-x="1546" d="M113 819q0 256 90 448.5t269.5 302t428.5 109.5q376 0 584 -233l-111 -109q-161 205 -473 205q-132 0 -240 -38t-181 -104t-123 -158t-72.5 -197.5t-22.5 -225.5q0 -118 22 -221t71 -192.5t122 -152.5t180.5 -99.5t241.5 -36.5q313 0 475 202l107 -106 q-208 -233 -582 -233q-255 0 -433.5 104.5t-265.5 291.5t-87 443z" />
<glyph unicode="D" horiz-adv-x="1640" d="M184 0v1659h609q131 0 238 -25.5t182 -68t132 -106.5t91.5 -133.5t55.5 -156t28.5 -167t7.5 -173.5q0 -94 -7.5 -174.5t-28.5 -167t-54.5 -155.5t-90 -133t-131 -106.5t-180 -67.5t-235.5 -25h-617zM313 137h467q108 0 195.5 20t149 54t107.5 86t73.5 109t44 130 t22.5 141.5t6 151.5q0 82 -6 151t-23 142t-45.5 130t-75 109t-109 86.5t-150.5 54.5t-197 20h-459l15 -17v-1353z" />
<glyph unicode="E" horiz-adv-x="1495" d="M184 0v1659h1168v-137h-1039l15 -15v-596l-15 -12h940v-139h-940l15 -12v-596l-15 -15h1039v-137h-1168z" />
<glyph unicode="F" horiz-adv-x="1372" d="M184 0v1659h1127v-137h-998l15 -15v-639l-15 -12h899v-137h-899l15 -14v-705h-144z" />
<glyph unicode="G" horiz-adv-x="1761" d="M113 813q0 401 209.5 633.5t584.5 232.5q181 0 338.5 -55t265.5 -174l-110 -109q-87 106 -216.5 153.5t-277.5 47.5q-161 0 -285 -51.5t-202.5 -148t-118 -229.5t-39.5 -300q0 -329 158.5 -512.5t474.5 -183.5q253 0 411 177q150 167 150 426v30l14 14h-557v137h664v-901 h-117v303h-4q-50 -104 -139 -178t-197 -109.5t-225 -35.5q-373 0 -577.5 221.5t-204.5 611.5z" />
<glyph unicode="H" horiz-adv-x="1679" d="M184 0v1659h144v-748l-15 -12h1053l-14 12v748h143v-1659h-143v748l14 12h-1053l15 -12v-748h-144z" />
<glyph unicode="I" horiz-adv-x="532" d="M195 0v1659h143v-1659h-143z" />
<glyph unicode="J" horiz-adv-x="1198" d="M0 213l102 102q67 -88 164.5 -143t192.5 -55q64 0 122.5 14.5t114 50t96 88.5t65 135.5t24.5 186.5v1067h143v-1057q0 -137 -30 -244.5t-81.5 -177.5t-125 -115.5t-154 -65t-174.5 -19.5q-134 0 -254 62t-205 171z" />
<glyph unicode="K" d="M184 0v1659h144v-1659h-144zM348 838l817 819h201l-821 -815v-4l848 -838h-209z" />
<glyph unicode="L" horiz-adv-x="1286" d="M184 0v1659h144v-1507l-15 -15h942v-137h-1071z" />
<glyph unicode="M" horiz-adv-x="1945" d="M184 0v1659h127l574 -1178l86 -190h4l86 192l571 1176h129v-1659h-143v1341h-4l-117 -284l-522 -1080h-4l-527 1086l-112 278h-4v-1341h-144z" />
<glyph unicode="N" horiz-adv-x="1679" d="M184 0v1659h138l917 -1253l109 -185h4v1438h143v-1659h-137l-918 1255l-108 183h-4v-1438h-144z" />
<glyph unicode="O" horiz-adv-x="1728" d="M113 819q0 257 84 448.5t255 301.5t412 110q242 0 413 -109.5t255 -301t84 -449.5q0 -387 -197 -613t-555 -226q-363 0 -557 225t-194 614zM262 819q0 -149 34.5 -273t104.5 -221.5t188.5 -152.5t274.5 -55q127 0 229 36.5t171 99.5t115 152.5t66.5 192.5t20.5 221 q0 117 -20 221t-66 197t-114.5 160t-171 106t-230.5 39q-126 0 -228 -38t-171 -104t-115 -158.5t-67 -197.5t-21 -225z" />
<glyph unicode="P" horiz-adv-x="1529" d="M184 0v1659h734q247 0 383.5 -138t136.5 -364q0 -106 -34.5 -197t-99 -159t-165 -107t-224.5 -39h-602l15 -16v-639h-144zM313 793h602q182 0 277.5 100t95.5 264q0 168 -95.5 266.5t-277.5 98.5h-602l15 -15v-700z" />
<glyph unicode="Q" horiz-adv-x="1755" d="M113 831q0 191 48.5 347t142 267.5t236 172.5t324.5 61t325 -60.5t236.5 -172t142 -267.5t48.5 -348q0 -181 -36 -318.5t-118 -252.5l262 -260l-96 -98l-254 256q-106 -93 -227 -135.5t-283 -42.5q-182 0 -325 61.5t-236 174t-141.5 268.5t-48.5 347zM262 831 q0 -118 21 -222t67.5 -195.5t115.5 -157t170.5 -103.5t227.5 -38q244 0 396 133l22 2l-274 274l94 99l264 -267v23q100 169 100 452q0 117 -20.5 220t-66.5 194t-114.5 156t-171 103t-229.5 38q-126 0 -228 -37t-171 -101t-115 -154.5t-67 -194.5t-21 -224z" />
<glyph unicode="R" horiz-adv-x="1556" d="M184 0v1659h701q112 0 208 -30.5t168.5 -89t114 -150.5t41.5 -209q0 -160 -90 -273t-262 -164v-4q156 -62 240 -241l241 -498h-168l-204 434q-67 140 -173 206.5t-274 66.5h-414l15 -17v-690h-144zM313 844h551q185 0 294.5 92t109.5 244q0 91 -29.5 158.5t-83 106.5 t-121 58t-149.5 19h-572l15 -17v-647z" />
<glyph unicode="S" horiz-adv-x="1517" d="M102 231l117 113q130 -120 261 -173.5t290 -53.5q230 0 363 84t133 225q0 103 -86.5 184t-255.5 127q-19 5 -151.5 42t-151.5 42q-122 35 -206 71.5t-150 86t-98 115t-32 149.5q0 67 22 129t70.5 118.5t119.5 98t177 66t234 24.5q185 0 339.5 -61t260.5 -172l-111 -109 q-185 205 -487 205q-227 0 -351 -81.5t-124 -209.5q0 -46 18.5 -84t51 -67t87.5 -56t115.5 -48t147.5 -46q14 -4 130 -37t138 -39q230 -63 336 -176.5t106 -259.5q0 -69 -20 -132t-68 -123.5t-119 -104.5t-181.5 -71t-248.5 -27q-197 0 -378 64t-298 187z" />
<glyph unicode="T" horiz-adv-x="1413" d="M41 1522v137h1331v-137h-604l10 -15v-1507h-143v1507l10 15h-604z" />
<glyph unicode="U" horiz-adv-x="1703" d="M174 758v901h143v-899q0 -150 28.5 -264.5t90.5 -201t166.5 -132t249.5 -45.5q144 0 248 45t166 131.5t91 201.5t29 265v899h144v-901q0 -388 -166.5 -583t-509.5 -195q-345 0 -512.5 194t-167.5 584z" />
<glyph unicode="V" horiz-adv-x="1603" d="M31 1659h164l544 -1327l62 -189h6l61 191l545 1325h160l-692 -1659h-158z" />
<glyph unicode="W" horiz-adv-x="2076" d="M51 1659h154l342 -1288l43 -234h2l41 234l348 1288h117l348 -1299l41 -223h2l41 225l342 1297h153l-448 -1659h-182l-312 1171l-43 220h-2l-45 -217l-311 -1174h-184z" />
<glyph unicode="X" horiz-adv-x="1462" d="M41 0l602 834l-596 825h182l400 -553l102 -166h4l103 166l399 553h178l-592 -825l598 -834h-182l-397 553l-111 178h-4l-109 -178l-397 -553h-180z" />
<glyph unicode="Y" horiz-adv-x="1540" d="M31 1659h182l446 -651l111 -185h2l111 185l446 651h180l-665 -959v-700h-146v700z" />
<glyph unicode="Z" horiz-adv-x="1564" d="M123 0v109l1010 1286l122 123v4h-1112v137h1289v-117l-992 -1261l-139 -140v-4h1141v-137h-1319z" />
<glyph unicode="[" horiz-adv-x="571" d="M123 -389v2247h428v-115h-303v-2022h303v-110h-428z" />
<glyph unicode="\" horiz-adv-x="608" d="M-61 1761h137l594 -1863h-138z" />
<glyph unicode="]" horiz-adv-x="571" d="M20 -272h304v2015h-304v115h429v-2247h-429v117z" />
<glyph unicode="^" horiz-adv-x="1339" d="M154 850l460 809h111l461 -809h-154l-295 518l-65 143h-4l-66 -143l-295 -518h-153z" />
<glyph unicode="_" horiz-adv-x="1347" d="M-20 -221h1388v-127h-1388v127z" />
<glyph unicode="`" horiz-adv-x="1423" d="M479 1759l113 111l334 -393l-56 -54z" />
<glyph unicode="a" horiz-adv-x="1372" d="M113 365q0 63 17 116.5t45.5 92.5t73 70t89.5 51.5t107 35.5t114.5 23.5t121 13t118 5.5t114.5 1q88 0 162 -12l-14 14v70q0 91 -31 157.5t-85.5 103.5t-120 54t-144.5 17q-259 0 -404 -125l-94 96q106 86 227.5 123t270.5 37q85 0 158 -13.5t140.5 -47t115 -85t76 -132 t28.5 -183.5v-848h-137v141h-4q-69 -77 -182.5 -120.5t-260.5 -43.5q-101 0 -188 21t-158.5 65.5t-113 121.5t-41.5 180zM250 365q0 -73 36.5 -126t95.5 -79t116 -37.5t116 -11.5q48 0 101.5 6.5t116.5 24.5t112.5 45t83 74t33.5 106v266l14 14q-74 8 -151 8q-125 0 -197 -4 q-127 -7 -217 -28q-260 -63 -260 -258z" />
<glyph unicode="b" horiz-adv-x="1439" d="M184 0v1718h138v-633h4q152 226 430 226q142 0 252.5 -51t179.5 -142.5t104 -214t35 -270.5q0 -146 -35.5 -265t-105 -206t-179 -134.5t-251.5 -47.5q-138 0 -249.5 53.5t-180.5 167.5h-4v-201h-138zM305 633q0 -112 24.5 -204t75.5 -164.5t138.5 -113t204.5 -40.5 q118 0 205 40t138 113t75 165t24 204q0 89 -14.5 167.5t-48 149t-83.5 120.5t-125.5 79t-170.5 29t-171 -29t-126 -79t-83.5 -120.5t-48 -148.5t-14.5 -168z" />
<glyph unicode="c" horiz-adv-x="1202" d="M113 635q0 145 40 269t113.5 214.5t185.5 141.5t250 51q273 0 424 -148l-96 -102q-123 117 -325 117q-112 -1 -200.5 -45.5t-143.5 -120t-83 -171.5t-28 -206q0 -107 25.5 -198.5t77.5 -165.5t141 -116t206 -42q209 0 344 135l97 -98q-164 -170 -441 -170q-117 0 -214 32 t-165.5 89.5t-115.5 139t-69.5 180.5t-22.5 214z" />
<glyph unicode="d" horiz-adv-x="1439" d="M113 633q0 148 35.5 270.5t104.5 214t179.5 142.5t253.5 51q279 0 428 -226h4v633h137v-1718h-137v201h-4q-68 -114 -179.5 -167.5t-250.5 -53.5q-142 0 -251.5 47.5t-179 134.5t-105 206t-35.5 265zM250 633q0 -112 24 -204t75 -165t138 -113t205 -40q117 0 204.5 40.5 t138.5 113t75.5 164.5t24.5 204q0 90 -14.5 168t-48 148.5t-83.5 120.5t-126 79t-171 29q-117 0 -204.5 -44t-138 -121t-75 -172t-24.5 -208z" />
<glyph unicode="e" d="M113 635q0 304 156.5 490t430.5 186q191 0 323 -87.5t194.5 -237.5t62.5 -351q0 -37 -2 -53h-1040l14 -13q52 -456 459 -456q206 0 354 135l96 -98q-179 -170 -450 -170q-150 0 -265.5 48.5t-187.5 137t-108.5 207t-36.5 262.5zM240 709h913l-14 14q-15 212 -129 333.5 t-308 121.5q-197 0 -310 -120t-138 -335z" />
<glyph unicode="f" horiz-adv-x="794" d="M61 1165v123h166l-10 15v38q0 181 101.5 285.5t285.5 104.5q77 0 150 -27v-125q-77 23 -146 23q-125 0 -189.5 -71t-64.5 -194v-34l-8 -15h408v-123h-408l8 -14v-1151h-137v1151l10 14h-166z" />
<glyph unicode="g" horiz-adv-x="1439" d="M113 711q0 126 36.5 234t105 190t176.5 129t243 47q147 0 262.5 -57.5t177.5 -159.5h4v194h137v-1184q0 -266 -138 -405t-421 -139q-280 0 -487 155l98 101q78 -59 183 -93t206 -34q204 0 313 108.5t109 306.5v232h-4q-159 -217 -438 -217q-277 0 -420 158t-143 434z M250 711q0 -212 111 -336.5t321 -124.5q225 0 339 126.5t114 334.5q0 210 -119 338.5t-334 128.5q-143 0 -242 -63t-144.5 -166t-45.5 -238z" />
<glyph unicode="h" horiz-adv-x="1439" d="M184 0v1720h138v-626h4q71 102 186.5 159.5t253.5 57.5q252 0 376 -127t124 -350v-834h-138v803q0 66 -10 119t-36 102t-68 82t-111 52.5t-160 19.5q-116 0 -210 -43.5t-152.5 -136.5t-58.5 -222v-776h-138z" />
<glyph unicode="i" horiz-adv-x="505" d="M152 1616q0 56 26.5 86.5t75.5 30.5q50 0 76 -30.5t26 -86.5t-26.5 -86.5t-75.5 -30.5t-75.5 30.5t-26.5 86.5zM184 0v1288h138v-1288h-138z" />
<glyph unicode="j" horiz-adv-x="505" d="M-131 -289q71 -22 139 -22q83 0 129.5 56.5t46.5 156.5v1388h138v-1401q0 -329 -310 -329q-81 0 -143 26v125zM152 1616q0 56 25.5 86.5t74.5 30.5q50 0 76 -30.5t26 -86.5q0 -55 -26.5 -86t-73.5 -31q-50 0 -76 30.5t-26 86.5z" />
<glyph unicode="k" horiz-adv-x="1183" d="M184 0v1720h138v-1720h-138zM342 662l614 626h187l-615 -624v-7l656 -657h-195z" />
<glyph unicode="l" horiz-adv-x="503" d="M184 0v1720h135v-1720h-135z" />
<glyph unicode="m" horiz-adv-x="2007" d="M184 0v1290h140v-205h4q53 108 149 167t207 59q116 0 212 -64.5t148 -169.5h5q64 107 169 170.5t218 63.5q198 0 297.5 -133t99.5 -408l-2 -770h-137v719q0 69 -3.5 119t-13 107t-29.5 95.5t-51 71.5t-80 49.5t-114 16.5q-81 0 -145.5 -33.5t-103 -90t-58.5 -126.5 q-19 -67 -19 -141v-7v-780h-139v772q0 72 -6 127t-24.5 110.5t-49.5 91t-84 57.5t-125 22q-143 0 -234 -115t-91 -287v-778h-140z" />
<glyph unicode="n" horiz-adv-x="1439" d="M184 0v1290h138v-198h4q67 103 184.5 161t253.5 58q245 0 373.5 -124.5t128.5 -357.5v-829h-138v788q0 90 -16.5 156t-58 121.5t-119 84t-191.5 28.5q-86 0 -161.5 -26t-134 -75.5t-92 -128.5t-33.5 -178v-770h-138z" />
<glyph unicode="o" d="M113 645q0 147 37 268.5t108 210.5t182.5 138t253.5 49q285 0 435.5 -181t150.5 -485q0 -197 -64.5 -345t-198 -234t-321.5 -86q-190 0 -323 85.5t-196.5 233.5t-63.5 346zM250 645q0 -112 26 -206.5t78.5 -168.5t139.5 -115.5t202 -41.5t203 41.5t140 115t78 168 t26 207.5q0 90 -16 168.5t-51 146t-86.5 115.5t-126.5 75.5t-167 27.5q-116 0 -203.5 -41.5t-139.5 -115.5t-77.5 -168.5t-25.5 -207.5z" />
<glyph unicode="p" horiz-adv-x="1439" d="M184 -430v1718h138v-198h4q69 114 180.5 167.5t249.5 53.5q188 0 318 -84t191.5 -229t61.5 -341q0 -149 -35 -271t-104 -213.5t-179 -142t-253 -50.5q-279 0 -430 225h-4v-635h-138zM305 657q0 -90 14.5 -168t48 -148t83.5 -120t126 -79t171 -29t170.5 29t125.5 79 t83.5 120t48 148.5t14.5 167.5q0 112 -24 204t-75 164.5t-138 112.5t-205 40q-117 0 -204.5 -40.5t-138.5 -113t-75.5 -164.5t-24.5 -203z" />
<glyph unicode="q" horiz-adv-x="1439" d="M113 655q0 196 61.5 341t191.5 229t318 84q139 0 250.5 -54t179.5 -168h4v201h137v-1718h-137v633h-4q-147 -223 -428 -223q-115 0 -209 32.5t-161 92t-113 144t-68 186.5t-22 220zM250 655q0 -89 15 -167.5t48.5 -148.5t83.5 -120t125.5 -79t169.5 -29q95 0 171 29 t126 79t83.5 120t48 148t14.5 168q0 111 -24.5 203t-75.5 164.5t-138.5 113t-204.5 40.5q-118 0 -205 -40t-138 -112.5t-75 -164.5t-24 -204z" />
<glyph unicode="r" horiz-adv-x="819" d="M184 0v1290h138v-280h4q52 143 170 219t268 76h14v-156h-35q-62 0 -121 -17t-114 -56.5t-96 -97.5t-65.5 -145.5t-24.5 -195.5v-637h-138z" />
<glyph unicode="s" horiz-adv-x="1243" d="M113 184l106 107q104 -96 201 -138t213 -42q169 0 263.5 62t94.5 161q0 80 -56 131.5t-190 89.5q-16 3 -118.5 34.5t-110.5 33.5q-91 27 -155 56t-115.5 69t-77 93.5t-25.5 121.5t28.5 129t85 110.5t151.5 79t217 29.5q286 0 469 -195l-105 -102q-145 164 -364 164 q-162 0 -252 -60t-90 -149q0 -76 71.5 -125.5t231.5 -93.5q11 -3 101 -32.5t106 -33.5q181 -52 259 -136t78 -206q0 -70 -26.5 -132.5t-82 -116t-154 -85t-228.5 -31.5q-149 0 -288 52t-238 155z" />
<glyph unicode="t" horiz-adv-x="901" d="M61 1165v125h164l-8 15v223l137 74v-297l-8 -15h408v-125h-408l8 -14v-780q0 -124 53 -192t150 -68q124 0 227 90l97 -99q-158 -122 -334 -122q-154 0 -242 99t-88 283v789l8 14h-164z" />
<glyph unicode="u" horiz-adv-x="1423" d="M174 481v809h137v-798q0 -85 15.5 -148t55 -118t116.5 -84t190 -29q117 0 209 44t148.5 137.5t56.5 225.5v770h137v-1290h-137v199h-4q-68 -102 -180.5 -160.5t-247.5 -58.5q-496 0 -496 501z" />
<glyph unicode="v" horiz-adv-x="1288" d="M20 1290h156l414 -983l51 -153h8l47 153l416 983h156l-553 -1290h-142z" />
<glyph unicode="w" horiz-adv-x="1761" d="M31 1290h147l283 -981l31 -151h6l28 151l295 981h119l297 -981l31 -151h6l29 151l284 981h144l-381 -1290h-160l-272 924l-33 168h-4l-33 -168l-279 -924h-159z" />
<glyph unicode="x" horiz-adv-x="1193" d="M41 0l471 649l-467 641h172l311 -432l68 -110h4l66 110l315 432h166l-467 -643l473 -647h-172l-319 440l-62 111h-4l-66 -111l-319 -440h-170z" />
<glyph unicode="y" horiz-adv-x="1284" d="M31 1290h155l418 -979l60 -178h4l61 178l369 979h155l-569 -1437q-55 -138 -149.5 -215.5t-204.5 -77.5q-130 0 -217 43v125q84 -37 192 -37q93 0 165 79.5t130 229.5z" />
<glyph unicode="z" horiz-adv-x="1294" d="M123 0v113l776 942l107 102v4h-869v127h1028v-106l-774 -940l-112 -111v-4h892v-127h-1048z" />
<glyph unicode="{" horiz-adv-x="675" d="M82 637v197q80 14 114.5 64t34.5 136v484q0 68 10 122.5t35 104t73 81t118 40.5q19 3 66 4.5t85 1.5h37v-111q-168 0 -232.5 -42.5t-64.5 -145.5v-537q0 -120 -30.5 -184.5t-122.5 -116.5q38 -21 63.5 -39.5t43 -41.5t26.5 -41t13.5 -50.5t5.5 -58t1 -74.5v-532 q0 -103 65 -146t232 -43v-110q-145 0 -188 6q-70 9 -118 40.5t-73 81t-35 104t-10 122.5v465q0 45 -6 79t-22 64t-46 49.5t-75 26.5z" />
<glyph unicode="|" horiz-adv-x="598" d="M236 -102v1863h126v-1863h-126z" />
<glyph unicode="}" horiz-adv-x="675" d="M20 -291q167 0 232 43t65 146v532q0 49 1 74.5t5.5 58t14 51t27 41t43 41t63.5 39.5q-92 52 -123 117t-31 184v537q0 103 -64.5 145.5t-232.5 42.5v111q148 0 191 -6q56 -7 98 -30t67.5 -54.5t41 -76t21 -89t5.5 -98.5v-484q0 -85 35.5 -135t114.5 -65v-197 q-59 -10 -93.5 -42t-45.5 -74t-11 -103v-465q0 -54 -5.5 -98.5t-21 -89t-41 -76t-67.5 -54.5t-98 -30q-19 -3 -67 -4.5t-86 -1.5h-38v110z" />
<glyph unicode="~" horiz-adv-x="1181" d="M61 600q26 89 116 155t204 66q52 0 115.5 -26.5t112.5 -58.5t107 -58.5t101 -26.5q72 0 133 49t82 121l88 -86q-32 -100 -121.5 -160.5t-201.5 -60.5q-51 0 -113.5 26.5t-111 58.5t-107.5 58.5t-105 26.5q-67 0 -128 -48t-82 -122z" />
<glyph horiz-adv-x="2048" />
<glyph unicode="&#xa1;" horiz-adv-x="565" d="M143 1524q0 71 36.5 112t103.5 41t103 -41t36 -112q0 -72 -36 -113t-103 -41q-68 0 -104 41t-36 113zM193 -2l47 1245h86l47 -1245h-180z" />
<glyph unicode="&#xa2;" horiz-adv-x="1202" d="M113 819q0 193 68 345t203 241.5t318 89.5q55 0 80 -2l-10 16l33 170h104l-32 -186l-15 -10q168 -47 264 -137l-96 -101q-78 71 -190 107l6 -19l-191 -1024l-14 -14q14 -2 43 -2q104 0 198 36.5t162 104.5l97 -98q-171 -174 -441 -174q-44 0 -84 4l11 -14l-33 -172h-107 l37 190l13 10q-211 60 -317.5 229t-106.5 410zM250 819q0 -114 27.5 -208t98.5 -175t183 -123l-6 19l190 1016l15 12q-14 2 -53 2q-111 0 -200 -44.5t-143.5 -120.5t-83 -172.5t-28.5 -205.5z" />
<glyph unicode="&#xa3;" horiz-adv-x="1394" d="M113 0v127q59 32 101.5 67t77.5 87t50.5 115t12.5 151.5t-29 197.5l6 15h-185v135h156l-14 14q-22 68 -39 167.5t-17 152.5q0 208 134.5 329t382.5 121q148 0 280.5 -62.5t220.5 -168.5l-102 -107q-165 201 -408 201q-78 0 -140.5 -16t-112.5 -51t-77.5 -95t-27.5 -143 q0 -130 49 -326l-8 -16h477v-135h-444l14 -15q38 -156 27 -277.5t-57 -203t-122 -123.5v-4h918v-137h-1124z" />
<glyph unicode="&#xa4;" horiz-adv-x="1216" d="M113 1229l92 92l147 -145q124 81 258 81q128 0 252 -81l148 145l94 -92l-146 -150q84 -137 84 -254q0 -130 -84 -258l144 -145l-92 -92l-148 145q-126 -80 -252 -80q-136 0 -258 82l-147 -145l-90 92l145 147q-84 131 -84 254q0 121 84 252zM303 825q0 -127 88 -215 q90 -90 219 -90t217 88q91 91 91 217q0 125 -91 219q-91 91 -217 91q-129 0 -219 -93q-88 -91 -88 -217z" />
<glyph unicode="&#xa5;" horiz-adv-x="1581" d="M51 1659h182l457 -668l101 -168h2l98 170l459 666h180l-539 -776l-24 -23h405v-139h-518l10 -21v-196l-8 -17h516v-139h-516l8 -18v-330h-145v330l8 18h-514v139h514l-8 17v196l10 21h-516v139h403l-26 25z" />
<glyph unicode="&#xa6;" horiz-adv-x="598" d="M236 -102v839h126v-839h-126zM236 922v839h126v-839h-126z" />
<glyph unicode="&#xa7;" horiz-adv-x="1243" d="M90 750q0 76 37 147t89.5 123t137.5 117q-121 124 -121 231q0 142 117.5 225.5t296.5 83.5q121 0 241.5 -53t213.5 -143l-92 -95q-73 73 -169.5 118.5t-193.5 45.5q-68 0 -124.5 -18t-95 -61t-38.5 -105q0 -106 131 -203q39 -28 125 -80q24 -14 71.5 -41.5t69.5 -40.5 q68 -38 114.5 -68t98.5 -71t83.5 -79.5t52 -88t20.5 -102.5q0 -113 -61 -205t-181 -186q77 -82 106.5 -138t29.5 -135q0 -111 -56 -189.5t-145 -114.5t-201 -36q-125 0 -252 49.5t-219 135.5l92 94q72 -70 174.5 -109t204.5 -39q109 0 176.5 49.5t67.5 161.5q0 63 -53 133 q-66 78 -209 166q-44 27 -129.5 76t-120.5 70q-140 85 -214.5 172.5t-74.5 202.5zM231 770q0 -143 203 -266l391 -236q40 36 65 61.5t57.5 65t48.5 80t16 82.5q0 48 -20 91t-59 79t-67 56.5t-73 47.5l-367 228q-37 -33 -52.5 -47.5t-49 -50.5t-49.5 -61t-30 -61t-14 -69z " />
<glyph unicode="&#xa8;" horiz-adv-x="1372" d="M322 1571q0 59 27 91t79 32t79.5 -32t27.5 -91q0 -57 -28 -89t-79 -32q-52 0 -79 31.5t-27 89.5zM807 1571q0 59 27 91t79 32t79.5 -32t27.5 -91q0 -57 -28 -89t-79 -32q-52 0 -79 31.5t-27 89.5z" />
<glyph unicode="&#xa9;" horiz-adv-x="1943" d="M123 821q0 230 114 425t309.5 309t426.5 114q172 0 329 -67.5t270.5 -181t181 -270.5t67.5 -329q0 -173 -67.5 -330.5t-181 -272t-270.5 -182t-329 -67.5q-173 0 -330.5 67.5t-271 182t-181 272t-67.5 330.5zM236 821q0 -149 58 -287.5t156 -241.5t235.5 -164.5 t287.5 -61.5t286.5 61.5t234.5 164.5t156 241.5t58 287.5q0 99 -26.5 195t-74 179t-116 154t-149 121t-175.5 78.5t-194 28.5q-149 0 -286 -62t-235.5 -165t-157 -242t-58.5 -287zM457 811q0 123 35 227.5t99.5 180t162.5 118.5t219 43q238 0 370 -123l-83 -86 q-111 100 -287 97q-98 -1 -175.5 -38t-125.5 -100.5t-72.5 -144.5t-24.5 -174q0 -91 22.5 -168t68 -139t124 -97.5t181.5 -35.5q184 0 301 114l84 -84q-149 -143 -385 -143q-170 0 -287.5 72.5t-172 195t-54.5 285.5z" />
<glyph unicode="&#xaa;" horiz-adv-x="901" d="M61 1055q0 55 19.5 99t49 72.5t76.5 49t89.5 31t102 16.5t99 7t95.5 1q43 0 98 -2l-14 19v41q0 64 -34 106.5t-84.5 59t-117.5 16.5q-163 0 -262 -86l-76 80q74 63 156 88.5t182 25.5q71 0 130 -15.5t110 -50t79.5 -97t28.5 -148.5v-561h-112v88h-4q-102 -102 -275 -102 q-66 0 -124 14t-106.5 43.5t-77 82t-28.5 122.5zM172 1055q0 -44 22 -75.5t57.5 -48t71.5 -23.5t74 -7q40 0 84.5 8t90 24t75 48t29.5 74v157l14 17q-53 2 -92 2q-80 0 -127 -2q-66 -3 -139 -19q-160 -37 -160 -155z" />
<glyph unicode="&#xab;" horiz-adv-x="1089" d="M113 522l376 404l93 -99l-168 -180l-129 -121v-10l129 -121l168 -178l-93 -98zM508 522l377 404l92 -99l-168 -180l-129 -121v-10l129 -121l168 -178l-92 -98z" />
<glyph unicode="&#xac;" horiz-adv-x="1142" d="M61 614v144h1020v-656h-137v496l17 16h-900z" />
<glyph unicode="&#xad;" horiz-adv-x="768" d="M61 594v143h646v-143h-646z" />
<glyph unicode="&#xae;" horiz-adv-x="1943" d="M123 821q0 230 114 425t309.5 309t426.5 114q172 0 329 -67.5t270.5 -181t181 -270.5t67.5 -329q0 -173 -67.5 -330.5t-181 -272t-270.5 -182t-329 -67.5q-173 0 -330.5 67.5t-271 182t-181 272t-67.5 330.5zM236 821q0 -149 58 -287.5t156 -241.5t235.5 -164.5 t287.5 -61.5t286.5 61.5t234.5 164.5t156 241.5t58 287.5q0 99 -26.5 195t-74 179t-116 154t-149 121t-175.5 78.5t-194 28.5q-149 0 -286 -62t-235.5 -165t-157 -242t-58.5 -287zM586 332v975h430q142 0 236 -74t94 -215q0 -160 -189 -252q79 -64 113 -133l147 -301h-129 l-123 252q-38 79 -93 114t-150 35h-238l16 -12v-389h-114zM684 842h317q106 0 166 48.5t60 127.5q0 178 -211 178h-332l16 -10v-330z" />
<glyph unicode="&#xaf;" d="M315 1520v106h777v-106h-777z" />
<glyph unicode="&#xb0;" horiz-adv-x="876" d="M61 1294q0 173 90.5 279t260.5 106q172 0 262 -105t90 -280q0 -171 -91 -277t-259 -106q-171 0 -262 105.5t-91 277.5zM178 1294q0 -121 59 -195.5t177 -74.5q117 0 175 74.5t58 195.5q0 123 -58 197t-175 74q-119 0 -177.5 -74t-58.5 -197z" />
<glyph unicode="&#xb1;" horiz-adv-x="1382" d="M184 166v139h1014v-139h-1014zM184 901v143h443l-6 15v463h139v-463l-8 -15h442v-143h-442l8 -14v-461h-139v461l6 14h-443z" />
<glyph unicode="&#xb2;" horiz-adv-x="831" d="M113 739v168q0 105 53.5 193t161.5 127l110 41q87 32 121.5 67.5t34.5 83.5q0 54 -40.5 91.5t-131.5 37.5q-126 0 -213 -116l-90 92q125 145 305 145q145 0 220 -73.5t75 -176.5q0 -92 -52.5 -157t-168.5 -107l-131 -47q-134 -50 -134 -231l-12 -17h496v-121h-604z" />
<glyph unicode="&#xb3;" horiz-adv-x="894" d="M113 874l88 91q53 -60 108 -89.5t131 -29.5q110 0 166 47t56 106q0 66 -50.5 110.5t-146.5 53.5q-17 2 -74 3.5t-65 2.5v115q87 0 133 4q96 11 140 55.5t44 96.5q0 50 -48 85.5t-153 35.5q-74 0 -129.5 -27.5t-103.5 -85.5l-88 92q125 139 321 139q159 0 240.5 -74.5 t81.5 -179.5q0 -61 -39.5 -111t-110.5 -81v-4q74 -24 121 -83.5t47 -135.5q0 -51 -20.5 -99.5t-60 -90t-107.5 -66.5t-154 -25q-194 0 -327 145z" />
<glyph unicode="&#xb4;" horiz-adv-x="1423" d="M535 1477l333 393l111 -111l-391 -336z" />
<glyph unicode="&#xb5;" horiz-adv-x="1419" d="M166 -430v1720h139v-770q0 -184 106 -289.5t269 -105.5q185 0 299.5 106t114.5 295v764h137v-1292h-137v172h-9q-81 -94 -185.5 -143.5t-219.5 -49.5q-221 0 -371 193h-4v-600h-139z" />
<glyph unicode="&#xb6;" horiz-adv-x="1218" d="M0 1159q0 135 65.5 250t177.5 182.5t244 67.5h588v-123h-135l16 -16v-1891h-122v1891l16 16h-229l16 -16v-1891h-125v1016l16 17h-47q-133 0 -243.5 66.5t-174 180.5t-63.5 250z" />
<glyph unicode="&#xb7;" horiz-adv-x="544" d="M123 829q0 72 36 113t103 41q68 0 103.5 -41t35.5 -113q0 -71 -36 -112t-103 -41q-68 0 -103.5 40.5t-35.5 112.5z" />
<glyph unicode="&#xb8;" horiz-adv-x="1243" d="M463 -309l121 123q39 39 52 57t11 35.5t-24 40.5l-50 51l86 10l52 -51q44 -44 46.5 -90.5t-38.5 -87.5l-174 -174z" />
<glyph unicode="&#xb9;" horiz-adv-x="538" d="M61 1432l222 227h102v-930h-119v684l10 84h-4l-53 -74l-72 -77z" />
<glyph unicode="&#xba;" horiz-adv-x="954" d="M61 1237q0 199 100.5 320.5t289.5 121.5q191 0 291 -120.5t100 -321.5q0 -200 -101 -322t-290 -122t-289.5 121.5t-100.5 322.5zM172 1237q0 -149 70 -241.5t211 -92.5q140 0 209 92.5t69 241.5q0 148 -69 240t-209 92q-142 0 -211.5 -91.5t-69.5 -240.5z" />
<glyph unicode="&#xbb;" horiz-adv-x="1089" d="M113 217l168 178l127 121v10l-127 121l-168 180l90 99l379 -404l-379 -403zM508 217l168 178l127 121v10l-127 121l-168 180l90 99l379 -404l-379 -403z" />
<glyph unicode="&#xbc;" horiz-adv-x="1464" d="M61 1432l222 227h102v-930h-119v684l10 84h-4l-53 -74l-72 -77zM252 -20l596 1699h129l-596 -1699h-129zM653 223v99l486 610h112v-574l-8 -14h109v-121h-109l8 -14v-211h-123v211l11 14h-486zM795 342l340 2l-9 12v314l9 98h-5l-55 -82l-213 -268l-67 -72v-4z" />
<glyph unicode="&#xbd;" horiz-adv-x="1507" d="M61 1432l222 227h102v-930h-119v684l10 84h-4l-53 -74l-72 -77zM252 -20l596 1699h129l-596 -1699h-129zM791 -2v168q0 105 53.5 192.5t161.5 126.5l110 41q87 31 121.5 66.5t34.5 83.5q0 55 -40.5 93t-131.5 38q-64 0 -115 -27.5t-100 -89.5l-88 94q126 146 303 146 q146 0 220.5 -74t74.5 -180q0 -91 -52 -155.5t-167 -106.5l-132 -49q-69 -25 -102 -79t-33 -149l-12 -16h498v-123h-604z" />
<glyph unicode="&#xbe;" horiz-adv-x="1789" d="M113 874l88 91q53 -60 108 -89.5t131 -29.5q110 0 166 47t56 106q0 66 -50.5 110.5t-146.5 53.5q-17 2 -74 3.5t-65 2.5v115q87 0 133 4q96 11 140 55.5t44 96.5q0 50 -48 85.5t-153 35.5q-74 0 -129.5 -27.5t-103.5 -85.5l-88 92q125 139 321 139q159 0 240.5 -74.5 t81.5 -179.5q0 -61 -39.5 -111t-110.5 -81v-4q74 -24 121 -83.5t47 -135.5q0 -51 -20.5 -99.5t-60 -90t-107.5 -66.5t-154 -25q-194 0 -327 145zM575 -20l596 1699h132l-596 -1699h-132zM981 223v99l483 610h113v-574l-8 -14h108v-121h-106l6 -14v-211h-123v211l10 14h-483z M1120 342l340 2l-6 12v314l8 98h-6l-53 -82l-213 -268l-70 -72v-4z" />
<glyph unicode="&#xbf;" horiz-adv-x="1247" d="M113 397q0 128 72 227t190 146l78 31q131 54 171 128t40 236v80h143v-98q0 -79 -6.5 -134.5t-25 -109.5t-53 -94t-89.5 -76.5t-135 -68.5l-47 -21q-99 -39 -144 -98.5t-45 -147.5q0 -107 101.5 -192.5t246.5 -85.5q135 0 235 51t179 152l111 -107q-199 -235 -525 -235 q-115 0 -211.5 38t-157.5 99.5t-94.5 134t-33.5 145.5zM596 1526q0 71 36 112t103 41t103 -41t36 -112q0 -72 -36 -113t-103 -41q-68 0 -103.5 41t-35.5 113z" />
<glyph unicode="&#xc0;" horiz-adv-x="1644" d="M31 0l729 1659h127l727 -1659h-158l-186 420l6 14h-907l4 -14l-185 -420h-157zM430 571h784l-16 15l-328 747l-45 156h-4l-49 -156l-328 -749zM573 2128l111 108l334 -391l-53 -53z" />
<glyph unicode="&#xc1;" horiz-adv-x="1644" d="M31 0l729 1659h127l727 -1659h-158l-186 420l6 14h-907l4 -14l-185 -420h-157zM430 571h784l-16 15l-328 747l-45 156h-4l-49 -156l-328 -749zM623 1847l333 391l111 -108l-391 -336z" />
<glyph unicode="&#xc2;" horiz-adv-x="1644" d="M31 0l729 1659h127l727 -1659h-158l-186 420l6 14h-907l4 -14l-185 -420h-157zM430 571h784l-16 15l-328 747l-45 156h-4l-49 -156l-328 -749zM481 1849l338 336h6l340 -338l-59 -61l-281 229h-6l-276 -229z" />
<glyph unicode="&#xc3;" horiz-adv-x="1644" d="M31 0l729 1659h127l727 -1659h-158l-186 420l6 14h-907l4 -14l-185 -420h-157zM354 1878q26 91 97 140.5t176 49.5q52 0 111 -23.5t102 -52t97 -52t97 -23.5q64 0 116.5 47.5t72.5 114.5l77 -76q-30 -96 -103.5 -153.5t-172.5 -57.5q-50 0 -108 24t-102.5 52t-99.5 52 t-100 24q-62 0 -112 -37.5t-70 -104.5zM430 571h784l-16 15l-328 747l-45 156h-4l-49 -156l-328 -749z" />
<glyph unicode="&#xc4;" horiz-adv-x="1644" d="M31 0l729 1659h127l727 -1659h-158l-186 420l6 14h-907l4 -14l-185 -420h-157zM430 571h784l-16 15l-328 747l-45 156h-4l-49 -156l-328 -749zM475 1964q0 58 28 89.5t79 31.5q106 0 106 -121q0 -57 -27.5 -89t-78.5 -32q-52 0 -79.5 31t-27.5 90zM963 1964q0 59 26.5 90 t77.5 31q52 0 79.5 -31t27.5 -90q0 -58 -27.5 -89.5t-79.5 -31.5q-51 0 -77.5 31t-26.5 90z" />
<glyph unicode="&#xc5;" horiz-adv-x="1644" d="M31 0l727 1659h127l729 -1659h-158l-186 420l6 14h-907l4 -14l-185 -420h-157zM430 571h784l-16 15l-328 747l-45 156h-4l-49 -156l-328 -749zM627 1999q0 94 49.5 150.5t144.5 56.5q97 0 147 -56t50 -151q0 -94 -50.5 -150.5t-144.5 -56.5q-96 0 -146 56.5t-50 150.5z M705 1999q0 -57 29.5 -93t88.5 -36q58 0 88.5 36t30.5 93t-30.5 93t-88.5 36q-59 0 -88.5 -36t-29.5 -93z" />
<glyph unicode="&#xc6;" horiz-adv-x="2082" d="M31 0l725 1659h1183v-137h-761l8 -17v-594l-12 -12h684v-139h-684l12 -15v-591l-12 -17h765v-137h-897v418l17 16h-694l8 -16l-180 -418h-162zM424 571h629l-15 15l4 919l9 17h-207l8 -19l-408 -917z" />
<glyph unicode="&#xc7;" horiz-adv-x="1546" d="M113 819q0 256 90 448.5t269.5 302t428.5 109.5q376 0 584 -233l-111 -109q-161 205 -473 205q-132 0 -240 -38t-181 -104t-123 -158t-72.5 -197.5t-22.5 -225.5q0 -118 22 -221t71 -192.5t122 -152.5t180.5 -99.5t241.5 -36.5q313 0 475 202l107 -106 q-191 -214 -520 -231l24 -25q29 -29 43 -52t9.5 -54.5t-36.5 -63.5l-182 -182l-82 86l121 123q39 39 52 57t11 35.5t-24 40.5l-33 33q-245 7 -415 113.5t-253 291t-83 434.5z" />
<glyph unicode="&#xc8;" horiz-adv-x="1495" d="M184 0v1659h1168v-137h-1039l15 -15v-596l-15 -12h940v-139h-940l15 -12v-596l-15 -15h1039v-137h-1168zM553 2128l111 108l333 -391l-53 -53z" />
<glyph unicode="&#xc9;" horiz-adv-x="1495" d="M184 0v1659h1168v-137h-1039l15 -15v-596l-15 -12h940v-139h-940l15 -12v-596l-15 -15h1039v-137h-1168zM637 1843l334 391l110 -108l-391 -336z" />
<glyph unicode="&#xca;" horiz-adv-x="1495" d="M184 0v1659h1168v-137h-1039l15 -15v-596l-15 -12h940v-139h-940l15 -12v-596l-15 -15h1039v-137h-1168zM430 1849l338 336h6l340 -338l-59 -61l-281 229h-6l-276 -229z" />
<glyph unicode="&#xcb;" horiz-adv-x="1495" d="M184 0v1659h1168v-137h-1039l15 -15v-596l-15 -12h940v-139h-940l15 -12v-596l-15 -15h1039v-137h-1168zM430 1964q0 58 28 89.5t79 31.5q106 0 106 -121q0 -57 -27.5 -89t-78.5 -32q-52 0 -79.5 31t-27.5 90zM918 1964q0 59 26.5 90t77.5 31q106 0 106 -121 q0 -58 -27 -89.5t-79 -31.5q-51 0 -77.5 31t-26.5 90z" />
<glyph unicode="&#xcc;" horiz-adv-x="532" d="M25 2128l110 108l334 -391l-53 -53zM195 0v1659h143v-1659h-143z" />
<glyph unicode="&#xcd;" horiz-adv-x="532" d="M59 1847l334 391l111 -108l-391 -336zM195 0v1659h143v-1659h-143z" />
<glyph unicode="&#xce;" horiz-adv-x="532" d="M-72 1849l338 336h6l340 -338l-59 -61l-281 229h-6l-276 -229zM195 0v1659h143v-1659h-143z" />
<glyph unicode="&#xcf;" horiz-adv-x="532" d="M-84 1964q0 58 28 89.5t79 31.5q106 0 106 -121q0 -57 -27.5 -89t-78.5 -32q-52 0 -79.5 31t-27.5 90zM195 0v1659h143v-1659h-143zM403 1964q0 59 27 90t78 31q106 0 106 -121q0 -58 -27 -89.5t-79 -31.5q-51 0 -78 31t-27 90z" />
<glyph unicode="&#xd0;" horiz-adv-x="1634" d="M51 760v139h144l-11 14v746h602q131 0 238 -25.5t182.5 -68t132.5 -106.5t91 -133.5t55.5 -156t29 -167t7.5 -173.5q0 -94 -7.5 -174.5t-28.5 -167t-54.5 -155.5t-90 -133t-131 -106.5t-180 -67.5t-235.5 -25h-611v745l11 15h-144zM313 137h461q108 0 195.5 20t149 54 t107.5 86t73.5 109t44 130t22.5 141.5t6 151.5q0 82 -6 151t-23 142t-45.5 130t-75 109t-109 86.5t-150.5 54.5t-197 20h-453l15 -15v-594l-9 -14h408v-139h-410l11 -15v-591z" />
<glyph unicode="&#xd1;" horiz-adv-x="1679" d="M184 0v1659h138l917 -1253l109 -185h4v1438h143v-1659h-137l-918 1255l-108 183h-4v-1438h-144zM383 1878q26 91 96.5 140.5t175.5 49.5q52 0 111 -23.5t102.5 -52t97.5 -52t97 -23.5q64 0 116 47.5t72 114.5l78 -76q-30 -96 -103.5 -153.5t-172.5 -57.5q-50 0 -108 24 t-102.5 52t-99.5 52t-100 24q-62 0 -112 -37.5t-70 -104.5z" />
<glyph unicode="&#xd2;" horiz-adv-x="1728" d="M113 819q0 257 84 448.5t255 301.5t412 110q242 0 413 -109.5t255 -301t84 -449.5q0 -387 -197 -613t-555 -226q-363 0 -557 225t-194 614zM262 819q0 -149 34.5 -273t104.5 -221.5t188.5 -152.5t274.5 -55q127 0 229 36.5t171 99.5t115 152.5t66.5 192.5t20.5 221 q0 117 -20 221t-66 197t-114.5 160t-171 106t-230.5 39q-126 0 -228 -38t-171 -104t-115 -158.5t-67 -197.5t-21 -225zM621 2128l110 108l334 -391l-53 -53z" />
<glyph unicode="&#xd3;" horiz-adv-x="1728" d="M113 819q0 257 84 448.5t255 301.5t412 110q242 0 413 -109.5t255 -301t84 -449.5q0 -387 -197 -613t-555 -226q-363 0 -557 225t-194 614zM262 819q0 -149 34.5 -273t104.5 -221.5t188.5 -152.5t274.5 -55q127 0 229 36.5t171 99.5t115 152.5t66.5 192.5t20.5 221 q0 117 -20 221t-66 197t-114.5 160t-171 106t-230.5 39q-126 0 -228 -38t-171 -104t-115 -158.5t-67 -197.5t-21 -225zM659 1847l334 391l111 -108l-391 -336z" />
<glyph unicode="&#xd4;" horiz-adv-x="1728" d="M113 819q0 257 84 448.5t255 301.5t412 110q242 0 413 -109.5t255 -301t84 -449.5q0 -387 -197 -613t-555 -226q-363 0 -557 225t-194 614zM262 819q0 -149 34.5 -273t104.5 -221.5t188.5 -152.5t274.5 -55q127 0 229 36.5t171 99.5t115 152.5t66.5 192.5t20.5 221 q0 117 -20 221t-66 197t-114.5 160t-171 106t-230.5 39q-126 0 -228 -38t-171 -104t-115 -158.5t-67 -197.5t-21 -225zM530 1849l338 336h6l340 -338l-59 -61l-281 229h-6l-276 -229z" />
<glyph unicode="&#xd5;" horiz-adv-x="1728" d="M113 819q0 257 84 448.5t255 301.5t412 110q242 0 413 -109.5t255 -301t84 -449.5q0 -387 -197 -613t-555 -226q-363 0 -557 225t-194 614zM262 819q0 -149 34.5 -273t104.5 -221.5t188.5 -152.5t274.5 -55q127 0 229 36.5t171 99.5t115 152.5t66.5 192.5t20.5 221 q0 117 -20 221t-66 197t-114.5 160t-171 106t-230.5 39q-126 0 -228 -38t-171 -104t-115 -158.5t-67 -197.5t-21 -225zM395 1878q26 91 97 140.5t176 49.5q52 0 111 -23.5t102 -52t97 -52t97 -23.5q64 0 116.5 47.5t72.5 114.5l77 -76q-30 -96 -103.5 -153.5t-172.5 -57.5 q-50 0 -108 24t-102.5 52t-99.5 52t-100 24q-62 0 -112 -37.5t-70 -104.5z" />
<glyph unicode="&#xd6;" horiz-adv-x="1728" d="M113 819q0 257 84 448.5t255 301.5t412 110q242 0 413 -109.5t255 -301t84 -449.5q0 -387 -197 -613t-555 -226q-363 0 -557 225t-194 614zM262 819q0 -149 34.5 -273t104.5 -221.5t188.5 -152.5t274.5 -55q127 0 229 36.5t171 99.5t115 152.5t66.5 192.5t20.5 221 q0 117 -20 221t-66 197t-114.5 160t-171 106t-230.5 39q-126 0 -228 -38t-171 -104t-115 -158.5t-67 -197.5t-21 -225zM524 1964q0 58 28 89.5t79 31.5q106 0 106 -121q0 -57 -27.5 -89t-78.5 -32q-52 0 -79.5 31t-27.5 90zM1012 1964q0 59 26.5 90t77.5 31q52 0 79.5 -31 t27.5 -90q0 -58 -27.5 -89.5t-79.5 -31.5q-51 0 -77.5 31t-26.5 90z" />
<glyph unicode="&#xd7;" horiz-adv-x="1206" d="M154 477l364 359l-14 6l-350 342l100 100l338 -346l6 -20l354 366l101 -100l-367 -363l21 -6l346 -340l-101 -100l-336 344l-8 20l-354 -364z" />
<glyph unicode="&#xd8;" horiz-adv-x="1728" d="M113 819q0 257 84 448.5t255 301.5t412 110q235 0 408 -104v16l80 142l65 -39l-84 -148l-12 -6q148 -112 221.5 -296.5t73.5 -424.5q0 -387 -197 -613t-555 -226q-226 0 -383 88l-2 -21l-100 -178l-66 39l103 180l14 10q-157 105 -237 289.5t-80 431.5zM262 819 q0 -193 59.5 -348.5t182.5 -247.5v19l684 1200l12 8q-140 92 -336 92q-126 0 -228 -38t-171 -104t-115 -158.5t-67 -197.5t-21 -225zM553 193q131 -76 311 -76q127 0 229 36.5t171 99.5t115 152.5t66.5 192.5t20.5 221q0 185 -53 340.5t-164 253.5l-2 -18l-680 -1194z" />
<glyph unicode="&#xd9;" horiz-adv-x="1703" d="M174 758v901h143v-899q0 -150 28.5 -264.5t90.5 -201t166.5 -132t249.5 -45.5q144 0 248 45t166 131.5t91 201.5t29 265v899h144v-901q0 -388 -166.5 -583t-509.5 -195q-345 0 -512.5 194t-167.5 584zM608 2128l111 108l334 -391l-54 -53z" />
<glyph unicode="&#xda;" horiz-adv-x="1703" d="M174 758v901h143v-899q0 -150 28.5 -264.5t90.5 -201t166.5 -132t249.5 -45.5q144 0 248 45t166 131.5t91 201.5t29 265v899h144v-901q0 -388 -166.5 -583t-509.5 -195q-345 0 -512.5 194t-167.5 584zM645 1847l334 391l111 -108l-392 -336z" />
<glyph unicode="&#xdb;" horiz-adv-x="1703" d="M174 758v901h143v-899q0 -150 28.5 -264.5t90.5 -201t166.5 -132t249.5 -45.5q144 0 248 45t166 131.5t91 201.5t29 265v899h144v-901q0 -388 -166.5 -583t-509.5 -195q-345 0 -512.5 194t-167.5 584zM514 1849l338 336h6l340 -338l-59 -61l-281 229h-6l-277 -229z" />
<glyph unicode="&#xdc;" horiz-adv-x="1703" d="M174 758v901h143v-899q0 -150 28.5 -264.5t90.5 -201t166.5 -132t249.5 -45.5q144 0 248 45t166 131.5t91 201.5t29 265v899h144v-901q0 -388 -166.5 -583t-509.5 -195q-345 0 -512.5 194t-167.5 584zM500 1964q0 58 27.5 89.5t78.5 31.5q52 0 79.5 -31t27.5 -90 q0 -57 -28 -89t-79 -32q-106 0 -106 121zM987 1964q0 59 27 90t78 31q106 0 106 -121q0 -58 -27 -89.5t-79 -31.5q-51 0 -78 31t-27 90z" />
<glyph unicode="&#xdd;" horiz-adv-x="1540" d="M31 1659h182l422 -617l133 -211h4l133 211l424 617h180l-665 -959v-700h-146v700zM573 1845l334 391l113 -108l-391 -336z" />
<glyph unicode="&#xde;" horiz-adv-x="1529" d="M184 0v1659h142v-313l-15 -17h607q247 0 383.5 -138t136.5 -364q0 -106 -34.5 -197t-99 -159t-165 -106.5t-224.5 -38.5h-602l15 -17v-309h-144zM313 463h602q182 0 277.5 100t95.5 264q0 168 -95.5 266.5t-277.5 98.5h-602l15 -14v-701z" />
<glyph unicode="&#xdf;" horiz-adv-x="1343" d="M184 0v1341q0 108 30.5 185t89 121t135 64t177.5 20q131 0 243 -54.5t180.5 -155.5t68.5 -225q0 -112 -50 -201.5t-147 -142.5v-6q150 -49 235 -174t85 -291q0 -218 -136.5 -361t-340.5 -143q-156 0 -275 37v136q114 -41 256 -41q159 0 259 100.5t100 269.5 q0 168 -104 274.5t-267 106.5h-238v125h162q148 -2 235 77t87 224q0 149 -103 232.5t-252 83.5q-158 0 -225 -74t-67 -234v-1294h-138z" />
<glyph unicode="&#xe0;" horiz-adv-x="1372" d="M113 365q0 63 17 116.5t45.5 92.5t73 70t89.5 51.5t107 35.5t114.5 23.5t121 13t118 5.5t114.5 1q88 0 162 -12l-14 14v70q0 91 -31 157.5t-85.5 103.5t-120 54t-144.5 17q-259 0 -404 -125l-94 96q106 86 227.5 123t270.5 37q85 0 158 -13.5t140.5 -47t115 -85t76 -132 t28.5 -183.5v-848h-137v141h-4q-69 -77 -182.5 -120.5t-260.5 -43.5q-101 0 -188 21t-158.5 65.5t-113 121.5t-41.5 180zM250 365q0 -73 36.5 -126t95.5 -79t116 -37.5t116 -11.5q48 0 101.5 6.5t116.5 24.5t112.5 45t83 74t33.5 106v266l14 14q-74 8 -151 8q-125 0 -197 -4 q-127 -7 -217 -28q-260 -63 -260 -258zM459 1759l112 111l334 -393l-55 -54z" />
<glyph unicode="&#xe1;" horiz-adv-x="1372" d="M113 365q0 63 17 116.5t45.5 92.5t73 70t89.5 51.5t107 35.5t114.5 23.5t121 13t118 5.5t114.5 1q88 0 162 -12l-14 14v70q0 91 -31 157.5t-85.5 103.5t-120 54t-144.5 17q-259 0 -404 -125l-94 96q106 86 227.5 123t270.5 37q85 0 158 -13.5t140.5 -47t115 -85t76 -132 t28.5 -183.5v-848h-137v141h-4q-69 -77 -182.5 -120.5t-260.5 -43.5q-101 0 -188 21t-158.5 65.5t-113 121.5t-41.5 180zM250 365q0 -73 36.5 -126t95.5 -79t116 -37.5t116 -11.5q48 0 101.5 6.5t116.5 24.5t112.5 45t83 74t33.5 106v266l14 14q-74 8 -151 8q-125 0 -197 -4 q-127 -7 -217 -28q-260 -63 -260 -258zM514 1477l334 393l110 -111l-391 -336z" />
<glyph unicode="&#xe2;" horiz-adv-x="1372" d="M113 365q0 63 17 116.5t45.5 92.5t73 70t89.5 51.5t107 35.5t114.5 23.5t121 13t118 5.5t114.5 1q88 0 162 -12l-14 14v70q0 91 -31 157.5t-85.5 103.5t-120 54t-144.5 17q-259 0 -404 -125l-94 96q106 86 227.5 123t270.5 37q85 0 158 -13.5t140.5 -47t115 -85t76 -132 t28.5 -183.5v-848h-137v141h-4q-69 -77 -182.5 -120.5t-260.5 -43.5q-101 0 -188 21t-158.5 65.5t-113 121.5t-41.5 180zM250 365q0 -73 36.5 -126t95.5 -79t116 -37.5t116 -11.5q48 0 101.5 6.5t116.5 24.5t112.5 45t83 74t33.5 106v266l14 14q-74 8 -151 8q-125 0 -197 -4 q-127 -7 -217 -28q-260 -63 -260 -258zM332 1487l338 336h6l340 -338l-60 -62l-280 230h-6l-277 -230z" />
<glyph unicode="&#xe3;" horiz-adv-x="1372" d="M113 365q0 63 17 116.5t45.5 92.5t73 70t89.5 51.5t107 35.5t114.5 23.5t121 13t118 5.5t114.5 1q88 0 162 -12l-14 14v70q0 91 -31 157.5t-85.5 103.5t-120 54t-144.5 17q-259 0 -404 -125l-94 96q106 86 227.5 123t270.5 37q85 0 158 -13.5t140.5 -47t115 -85t76 -132 t28.5 -183.5v-848h-137v141h-4q-69 -77 -182.5 -120.5t-260.5 -43.5q-101 0 -188 21t-158.5 65.5t-113 121.5t-41.5 180zM195 1546q26 91 96.5 141t175.5 50q43 0 89 -15.5t85 -38t77 -45t79 -38t77 -15.5q64 0 116.5 47.5t72.5 114.5l78 -76q-30 -96 -104 -153.5 t-173 -57.5q-50 0 -108 24t-102 52t-99 52t-100 24q-62 0 -112.5 -37.5t-70.5 -104.5zM250 365q0 -73 36.5 -126t95.5 -79t116 -37.5t116 -11.5q48 0 101.5 6.5t116.5 24.5t112.5 45t83 74t33.5 106v266l14 14q-74 8 -151 8q-125 0 -197 -4q-127 -7 -217 -28 q-260 -63 -260 -258z" />
<glyph unicode="&#xe4;" horiz-adv-x="1372" d="M113 365q0 63 17 116.5t45.5 92.5t73 70t89.5 51.5t107 35.5t114.5 23.5t121 13t118 5.5t114.5 1q88 0 162 -12l-14 14v70q0 91 -31 157.5t-85.5 103.5t-120 54t-144.5 17q-259 0 -404 -125l-94 96q106 86 227.5 123t270.5 37q85 0 158 -13.5t140.5 -47t115 -85t76 -132 t28.5 -183.5v-848h-137v141h-4q-69 -77 -182.5 -120.5t-260.5 -43.5q-101 0 -188 21t-158.5 65.5t-113 121.5t-41.5 180zM250 365q0 -73 36.5 -126t95.5 -79t116 -37.5t116 -11.5q48 0 101.5 6.5t116.5 24.5t112.5 45t83 74t33.5 106v266l14 14q-74 8 -151 8q-125 0 -197 -4 q-127 -7 -217 -28q-260 -63 -260 -258zM322 1571q0 59 27 91t79 32t79.5 -32t27.5 -91q0 -57 -28 -89t-79 -32q-52 0 -79 31.5t-27 89.5zM807 1571q0 59 27 91t79 32t79.5 -32t27.5 -91q0 -57 -28 -89t-79 -32q-52 0 -79 31.5t-27 89.5z" />
<glyph unicode="&#xe5;" horiz-adv-x="1372" d="M113 365q0 63 17 116.5t45.5 92.5t73 70t89.5 51.5t107 35.5t114.5 23.5t121 13t118 5.5t114.5 1q88 0 162 -12l-14 14v70q0 91 -31 157.5t-85.5 103.5t-120 54t-144.5 17q-259 0 -404 -125l-94 96q106 86 227.5 123t270.5 37q85 0 158 -13.5t140.5 -47t115 -85t76 -132 t28.5 -183.5v-848h-137v141h-4q-69 -77 -182.5 -120.5t-260.5 -43.5q-101 0 -188 21t-158.5 65.5t-113 121.5t-41.5 180zM250 365q0 -73 36.5 -126t95.5 -79t116 -37.5t116 -11.5q48 0 101.5 6.5t116.5 24.5t112.5 45t83 74t33.5 106v266l14 14q-74 8 -151 8q-125 0 -197 -4 q-127 -7 -217 -28q-260 -63 -260 -258zM479 1630q0 94 50 150.5t145 56.5t145.5 -56.5t50.5 -150.5t-50.5 -150.5t-145.5 -56.5t-145 56.5t-50 150.5zM555 1630q0 -57 30 -93t89 -36t89 36t30 93t-30 93t-89 36t-89 -36t-30 -93z" />
<glyph unicode="&#xe6;" horiz-adv-x="2330" d="M113 365q0 63 17 116.5t45.5 92.5t73 70t89.5 51.5t107 35.5t114.5 23.5t121 13t118 5.5t114.5 1q88 0 158 -12l-10 16v68q0 91 -31 157.5t-85.5 103.5t-120 54t-144.5 17q-259 0 -404 -125l-94 96q106 86 227.5 123t270.5 37q161 0 281 -59t198 -197h4q183 258 475 258 q191 0 323 -87.5t194.5 -237.5t62.5 -351q0 -37 -2 -53h-1036l12 -15q23 -225 138 -339.5t319 -114.5q206 0 354 135l96 -98q-179 -170 -450 -170q-309 0 -492 229h-6q-51 -72 -110 -119.5t-129.5 -71.5t-138.5 -32.5t-159 -8.5q-101 0 -188 21t-158.5 65.5t-113 121.5 t-41.5 180zM250 365q0 -73 36.5 -126t95.5 -79t116 -37.5t116 -11.5q48 0 101 6t116.5 24t113 45t83 73.5t33.5 105.5v268l12 14q-74 8 -149 8q-125 0 -197 -4q-127 -7 -217 -28q-260 -63 -260 -258zM1182 709h913l-16 16q-15 205 -131 329t-308 124q-197 0 -311.5 -123 t-132.5 -330z" />
<glyph unicode="&#xe7;" horiz-adv-x="1202" d="M113 635q0 145 40 269t113.5 214.5t185.5 141.5t250 51q273 0 424 -148l-96 -102q-123 117 -325 117q-112 -1 -200.5 -45.5t-143.5 -120t-83 -171.5t-28 -206q0 -107 25.5 -198.5t77.5 -165.5t141 -116t206 -42q209 0 344 135l97 -98q-149 -155 -391 -170l22 -23 q29 -29 43 -52t9.5 -54.5t-36.5 -63.5l-182 -182l-82 86l121 123q39 39 52 57t11 35.5t-24 40.5l-33 33q-178 11 -300.5 99.5t-180 229.5t-57.5 326z" />
<glyph unicode="&#xe8;" d="M113 635q0 304 156.5 490t430.5 186q191 0 323 -87.5t194.5 -237.5t62.5 -351q0 -37 -2 -53h-1040l14 -13q52 -456 459 -456q206 0 354 135l96 -98q-179 -170 -450 -170q-150 0 -265.5 48.5t-187.5 137t-108.5 207t-36.5 262.5zM240 709h913l-14 14q-15 212 -129 333.5 t-308 121.5q-197 0 -310 -120t-138 -335zM451 1759l112 111l334 -393l-55 -54z" />
<glyph unicode="&#xe9;" d="M113 635q0 304 156.5 490t430.5 186q191 0 323 -87.5t194.5 -237.5t62.5 -351q0 -37 -2 -53h-1040l14 -13q52 -456 459 -456q206 0 354 135l96 -98q-179 -170 -450 -170q-150 0 -265.5 48.5t-187.5 137t-108.5 207t-36.5 262.5zM240 709h913l-14 14q-15 212 -129 333.5 t-308 121.5q-197 0 -310 -120t-138 -335zM524 1477l334 393l111 -111l-391 -336z" />
<glyph unicode="&#xea;" d="M113 635q0 304 156.5 490t430.5 186q191 0 323 -87.5t194.5 -237.5t62.5 -351q0 -37 -2 -53h-1040l14 -13q52 -456 459 -456q206 0 354 135l96 -98q-179 -170 -450 -170q-150 0 -265.5 48.5t-187.5 137t-108.5 207t-36.5 262.5zM240 709h913l-14 14q-15 212 -129 333.5 t-308 121.5q-197 0 -310 -120t-138 -335zM371 1487l338 336h6l340 -338l-60 -62l-280 230h-6l-277 -230z" />
<glyph unicode="&#xeb;" d="M113 635q0 304 156.5 490t430.5 186q191 0 323 -87.5t194.5 -237.5t62.5 -351q0 -37 -2 -53h-1040l14 -13q52 -456 459 -456q206 0 354 135l96 -98q-179 -170 -450 -170q-150 0 -265.5 48.5t-187.5 137t-108.5 207t-36.5 262.5zM240 709h913l-14 14q-15 212 -129 333.5 t-308 121.5q-197 0 -310 -120t-138 -335zM350 1571q0 59 27.5 91t79.5 32t79 -32t27 -91q0 -57 -27.5 -89t-78.5 -32q-52 0 -79.5 31.5t-27.5 89.5zM836 1571q0 59 27 91t79 32t79.5 -32t27.5 -91q0 -57 -28 -89t-79 -32q-52 0 -79 31.5t-27 89.5z" />
<glyph unicode="&#xec;" horiz-adv-x="505" d="M10 1759l113 111l334 -393l-56 -54zM184 0v1288h138v-1288h-138z" />
<glyph unicode="&#xed;" horiz-adv-x="505" d="M63 1477l334 393l111 -111l-391 -336zM184 0v1288h138v-1288h-138z" />
<glyph unicode="&#xee;" horiz-adv-x="505" d="M-84 1487l338 336h6l340 -338l-59 -62l-281 230h-6l-277 -230zM184 0v1288h138v-1288h-138z" />
<glyph unicode="&#xef;" horiz-adv-x="505" d="M-88 1571q0 59 27 91t79 32t79.5 -32t27.5 -91q0 -57 -28 -89t-79 -32q-52 0 -79 31.5t-27 89.5zM184 0v1288h138v-1288h-138zM397 1571q0 59 27.5 91t79.5 32t79 -32t27 -91q0 -57 -27.5 -89t-78.5 -32q-52 0 -79.5 31.5t-27.5 89.5z" />
<glyph unicode="&#xf0;" horiz-adv-x="1331" d="M113 604q0 186 60.5 325.5t186.5 220.5t306 81q42 0 170 -19l-162 254v19l-178 -109l-56 88l178 109l-18 8l-96 152h151l56 -86v-19l153 94l54 -88l-152 -94l16 -6l342 -539q95 -150 95 -391q0 -138 -35 -251.5t-103 -197t-174 -129.5t-241 -46q-180 0 -306 80 t-186.5 219t-60.5 325zM244 604q0 -105 24.5 -193t74.5 -157.5t132.5 -108.5t190.5 -39q109 0 192 39t132 108.5t73 157.5t24 193q0 106 -24.5 194t-73.5 157t-131.5 108t-191.5 39q-110 0 -192.5 -38.5t-132 -107.5t-73.5 -157t-24 -195z" />
<glyph unicode="&#xf1;" horiz-adv-x="1439" d="M184 0v1290h138v-198h4q67 103 184.5 161t253.5 58q245 0 373.5 -124.5t128.5 -357.5v-829h-138v788q0 90 -16.5 156t-58 121.5t-119 84t-191.5 28.5q-86 0 -161.5 -26t-134 -75.5t-92 -128.5t-33.5 -178v-770h-138zM276 1546q26 91 97 141t176 50q43 0 89 -15.5t85 -38 t77 -45t79 -38t77 -15.5q64 0 116.5 47.5t72.5 114.5l78 -76q-30 -96 -104 -153.5t-173 -57.5q-50 0 -108 24t-102 52t-99 52t-100 24q-62 0 -112.5 -37.5t-70.5 -104.5z" />
<glyph unicode="&#xf2;" d="M113 645q0 147 37 268.5t108 210.5t182.5 138t253.5 49q285 0 435.5 -181t150.5 -485q0 -197 -64.5 -345t-198 -234t-321.5 -86q-190 0 -323 85.5t-196.5 233.5t-63.5 346zM250 645q0 -112 26 -206.5t78.5 -168.5t139.5 -115.5t202 -41.5t203 41.5t140 115t78 168 t26 207.5q0 90 -16 168.5t-51 146t-86.5 115.5t-126.5 75.5t-167 27.5q-116 0 -203.5 -41.5t-139.5 -115.5t-77.5 -168.5t-25.5 -207.5zM438 1759l113 111l334 -393l-56 -54z" />
<glyph unicode="&#xf3;" d="M113 645q0 147 37 268.5t108 210.5t182.5 138t253.5 49q285 0 435.5 -181t150.5 -485q0 -197 -64.5 -345t-198 -234t-321.5 -86q-190 0 -323 85.5t-196.5 233.5t-63.5 346zM250 645q0 -112 26 -206.5t78.5 -168.5t139.5 -115.5t202 -41.5t203 41.5t140 115t78 168 t26 207.5q0 90 -16 168.5t-51 146t-86.5 115.5t-126.5 75.5t-167 27.5q-116 0 -203.5 -41.5t-139.5 -115.5t-77.5 -168.5t-25.5 -207.5zM520 1477l334 393l111 -111l-392 -336z" />
<glyph unicode="&#xf4;" d="M113 645q0 147 37 268.5t108 210.5t182.5 138t253.5 49q285 0 435.5 -181t150.5 -485q0 -197 -64.5 -345t-198 -234t-321.5 -86q-190 0 -323 85.5t-196.5 233.5t-63.5 346zM250 645q0 -112 26 -206.5t78.5 -168.5t139.5 -115.5t202 -41.5t203 41.5t140 115t78 168 t26 207.5q0 90 -16 168.5t-51 146t-86.5 115.5t-126.5 75.5t-167 27.5q-116 0 -203.5 -41.5t-139.5 -115.5t-77.5 -168.5t-25.5 -207.5zM354 1487l338 336h6l340 -338l-59 -62l-281 230h-6l-276 -230z" />
<glyph unicode="&#xf5;" d="M113 645q0 147 37 268.5t108 210.5t182.5 138t253.5 49q285 0 435.5 -181t150.5 -485q0 -197 -64.5 -345t-198 -234t-321.5 -86q-190 0 -323 85.5t-196.5 233.5t-63.5 346zM227 1546q26 91 97 141t176 50q43 0 89 -15.5t85 -38t77 -45t79 -38t77 -15.5q64 0 116.5 47.5 t72.5 114.5l78 -76q-30 -96 -104 -153.5t-173 -57.5q-50 0 -108 24t-102.5 52t-99.5 52t-100 24q-62 0 -112 -37.5t-70 -104.5zM250 645q0 -112 26 -206.5t78.5 -168.5t139.5 -115.5t202 -41.5t203 41.5t140 115t78 168t26 207.5q0 90 -16 168.5t-51 146t-86.5 115.5 t-126.5 75.5t-167 27.5q-116 0 -203.5 -41.5t-139.5 -115.5t-77.5 -168.5t-25.5 -207.5z" />
<glyph unicode="&#xf6;" d="M113 645q0 147 37 268.5t108 210.5t182.5 138t253.5 49q285 0 435.5 -181t150.5 -485q0 -197 -64.5 -345t-198 -234t-321.5 -86q-190 0 -323 85.5t-196.5 233.5t-63.5 346zM250 645q0 -112 26 -206.5t78.5 -168.5t139.5 -115.5t202 -41.5t203 41.5t140 115t78 168 t26 207.5q0 90 -16 168.5t-51 146t-86.5 115.5t-126.5 75.5t-167 27.5q-116 0 -203.5 -41.5t-139.5 -115.5t-77.5 -168.5t-25.5 -207.5zM346 1571q0 59 27.5 91t79.5 32t79 -32t27 -91q0 -57 -27.5 -89t-78.5 -32q-52 0 -79.5 31.5t-27.5 89.5zM831 1571q0 59 27.5 91 t79.5 32t79 -32t27 -91q0 -57 -27.5 -89t-78.5 -32q-52 0 -79.5 31.5t-27.5 89.5z" />
<glyph unicode="&#xf7;" horiz-adv-x="1382" d="M184 760v139h1014v-139h-1014zM555 420q0 72 35.5 112.5t101.5 40.5q68 0 103.5 -40.5t35.5 -112.5t-36 -113t-103 -41q-66 0 -101.5 41t-35.5 113zM555 1239q0 72 35.5 113t101.5 41q68 0 103.5 -41t35.5 -113t-36 -113t-103 -41q-66 0 -101.5 41t-35.5 113z" />
<glyph unicode="&#xf8;" d="M113 645q0 147 37 268.5t108 210.5t182.5 138t253.5 49q175 0 312 -76l-2 12l86 152l67 -39l-90 -154l-10 -6q223 -172 223 -555q0 -197 -64.5 -345t-198 -234t-321.5 -86q-173 0 -301 71v-14l-88 -152l-65 39l90 156l10 6q-114 88 -171.5 231.5t-57.5 327.5zM250 645 q0 -290 164 -436l2 18l508 883l14 4q-100 64 -242 64q-116 0 -203.5 -41.5t-139.5 -115.5t-77.5 -168.5t-25.5 -207.5zM465 170q96 -57 231 -57q115 0 203 41.5t140 115t78 168t26 207.5q0 294 -156 432l-2 -14l-510 -885z" />
<glyph unicode="&#xf9;" horiz-adv-x="1423" d="M174 481v809h137v-798q0 -85 15.5 -148t55 -118t116.5 -84t190 -29q117 0 209 44t148.5 137.5t56.5 225.5v770h137v-1290h-137v199h-4q-68 -103 -180 -161t-248 -58q-496 0 -496 501zM451 1759l112 111l334 -393l-55 -54z" />
<glyph unicode="&#xfa;" horiz-adv-x="1423" d="M174 481v809h137v-798q0 -85 15.5 -148t55 -118t116.5 -84t190 -29q117 0 209 44t148.5 137.5t56.5 225.5v770h137v-1290h-137v199h-4q-68 -103 -180 -161t-248 -58q-496 0 -496 501zM539 1477l333 393l111 -111l-391 -336z" />
<glyph unicode="&#xfb;" horiz-adv-x="1423" d="M174 481v809h137v-798q0 -85 15.5 -148t55 -118t116.5 -84t190 -29q117 0 209 44t148.5 137.5t56.5 225.5v770h137v-1290h-137v199h-4q-68 -103 -180 -161t-248 -58q-496 0 -496 501zM369 1487l338 336h6l340 -338l-60 -62l-280 230h-6l-277 -230z" />
<glyph unicode="&#xfc;" horiz-adv-x="1423" d="M174 481v809h137v-798q0 -85 15.5 -148t55 -118t116.5 -84t190 -29q117 0 209 44t148.5 137.5t56.5 225.5v770h137v-1290h-137v199h-4q-68 -103 -180 -161t-248 -58q-496 0 -496 501zM346 1571q0 59 27.5 91t79.5 32t79 -32t27 -91q0 -57 -27.5 -89t-78.5 -32 q-52 0 -79.5 31.5t-27.5 89.5zM831 1571q0 59 27.5 91t79.5 32t79 -32t27 -91q0 -57 -27.5 -89t-78.5 -32q-52 0 -79.5 31.5t-27.5 89.5z" />
<glyph unicode="&#xfd;" horiz-adv-x="1284" d="M31 1290h155l418 -979l60 -178h4l61 178l369 979h155l-569 -1437q-55 -138 -149.5 -215.5t-204.5 -77.5q-130 0 -217 43v125q84 -37 192 -37q93 0 165 79.5t130 229.5zM455 1479l333 391l111 -109l-391 -336z" />
<glyph unicode="&#xfe;" horiz-adv-x="1439" d="M184 -430v2150h138v-641h4q150 232 430 232q141 0 251 -50t179.5 -140t105 -210.5t35.5 -265.5q0 -148 -35 -268.5t-104 -209.5t-179 -138t-253 -49q-140 0 -243 53t-187 172h-4v-635h-138zM305 645q0 -89 14.5 -166.5t48 -146t83.5 -117t126 -76.5t171 -28 q94 0 169.5 28t125.5 77t83.5 117.5t48.5 145.5t15 166t-14.5 166t-48 145.5t-83.5 117t-125.5 76.5t-170.5 28q-117 0 -204.5 -42.5t-138.5 -118t-75.5 -168.5t-24.5 -204z" />
<glyph unicode="&#xff;" horiz-adv-x="1284" d="M31 1290h155l418 -979l60 -178h4l61 178l369 979h155l-569 -1437q-55 -138 -149.5 -215.5t-204.5 -77.5q-130 0 -217 43v125q84 -37 192 -37q93 0 165 79.5t130 229.5zM289 1571q0 59 27 91t79 32t79.5 -32t27.5 -91q0 -57 -28 -89t-79 -32q-52 0 -79 31.5t-27 89.5z M774 1571q0 59 27.5 91t79.5 32t79 -32t27 -91q0 -57 -27.5 -89t-78.5 -32q-52 0 -79.5 31.5t-27.5 89.5z" />
<glyph unicode="&#x152;" horiz-adv-x="2236" d="M113 819q0 258 70.5 450.5t211 301t336.5 108.5q128 0 236.5 -50t208.5 -161h4v191h913v-137h-786l20 -15v-596l-20 -12h704v-139h-704l20 -12v-596l-20 -15h786v-137h-913v184h-4q-102 -108 -209.5 -156t-235.5 -48q-198 0 -337.5 103t-210 290.5t-70.5 445.5zM266 819 q0 -146 26.5 -269.5t81 -222t146.5 -154.5t213 -56q98 0 177 37t132 101t88.5 154t51.5 192t16 218q0 115 -15.5 218t-51 196.5t-88.5 161t-132.5 107.5t-177.5 40q-122 0 -214 -58.5t-146 -161t-80.5 -229t-26.5 -274.5z" />
<glyph unicode="&#x153;" horiz-adv-x="2416" d="M113 645q0 147 37 268.5t108 210.5t182.5 138t253.5 49q190 0 320.5 -80.5t197.5 -231.5h5q72 148 202 230t305 82q191 0 323 -87.5t194.5 -237.5t62.5 -351q0 -37 -2 -53h-1040l14 -13q52 -456 459 -456q206 0 354 135l96 -98q-179 -170 -450 -170q-193 0 -325 79.5 t-202 223.5h-4q-144 -303 -508 -303q-190 0 -323 85.5t-196.5 233.5t-63.5 346zM250 645q0 -112 26 -206.5t78.5 -168.5t139.5 -115.5t202 -41.5t203 41.5t140 115t78 168t26 207.5q0 90 -16 168.5t-51 146t-86.5 115.5t-126.5 75.5t-167 27.5q-116 0 -203.5 -41.5 t-139.5 -115.5t-77.5 -168.5t-25.5 -207.5zM1264 709h913l-14 14q-15 212 -129 333.5t-308 121.5q-197 0 -310 -120t-138 -335z" />
<glyph unicode="&#x178;" horiz-adv-x="1540" d="M31 1659h182l446 -651l111 -185h2l111 185l446 651h180l-665 -959v-700h-146v700zM418 1964q0 58 27.5 89.5t78.5 31.5q52 0 79.5 -31t27.5 -90q0 -57 -28 -89t-79 -32q-106 0 -106 121zM905 1964q0 59 27 90t78 31q106 0 106 -121q0 -58 -27 -89.5t-79 -31.5 q-51 0 -78 31t-27 90z" />
<glyph unicode="&#x2c6;" horiz-adv-x="1304" d="M319 1487l338 336h7l340 -338l-60 -62l-280 230h-7l-276 -230z" />
<glyph unicode="&#x2dc;" horiz-adv-x="1439" d="M276 1546q26 91 97 141t176 50q43 0 89 -15.5t85 -38t77 -45t79 -38t77 -15.5q64 0 116.5 47.5t72.5 114.5l78 -76q-30 -96 -104 -153.5t-173 -57.5q-50 0 -108 24t-102 52t-99 52t-100 24q-62 0 -112.5 -37.5t-70.5 -104.5z" />
<glyph unicode="&#x2000;" horiz-adv-x="1119" />
<glyph unicode="&#x2001;" horiz-adv-x="2238" />
<glyph unicode="&#x2002;" horiz-adv-x="1119" />
<glyph unicode="&#x2003;" horiz-adv-x="2238" />
<glyph unicode="&#x2004;" horiz-adv-x="746" />
<glyph unicode="&#x2005;" horiz-adv-x="559" />
<glyph unicode="&#x2006;" horiz-adv-x="373" />
<glyph unicode="&#x2007;" horiz-adv-x="373" />
<glyph unicode="&#x2008;" horiz-adv-x="279" />
<glyph unicode="&#x2009;" horiz-adv-x="447" />
<glyph unicode="&#x200a;" horiz-adv-x="124" />
<glyph unicode="&#x2010;" horiz-adv-x="768" d="M61 594v143h646v-143h-646z" />
<glyph unicode="&#x2011;" horiz-adv-x="768" d="M61 594v143h646v-143h-646z" />
<glyph unicode="&#x2012;" horiz-adv-x="768" d="M61 594v143h646v-143h-646z" />
<glyph unicode="&#x2013;" horiz-adv-x="1208" d="M61 594v143h1086v-143h-1086z" />
<glyph unicode="&#x2014;" horiz-adv-x="1771" d="M61 594v143h1649v-143h-1649z" />
<glyph unicode="&#x2018;" horiz-adv-x="448" d="M92 1280q0 42 23 94l151 316l90 -39l-100 -213l-18 -13q59 -4 88.5 -43t29.5 -102q0 -68 -33.5 -106.5t-97.5 -38.5q-65 0 -99 38t-34 107z" />
<glyph unicode="&#x2019;" horiz-adv-x="448" d="M92 1161l101 213l18 15q-59 3 -89 41.5t-30 101.5q0 68 33.5 106.5t97.5 38.5q65 0 99 -38t34 -107q0 -44 -22 -94l-152 -316z" />
<glyph unicode="&#x201a;" horiz-adv-x="448" d="M92 133q0 67 34 106.5t97 39.5q65 0 99 -39t34 -107q0 -45 -22 -94l-152 -315l-90 38l101 211l18 15q-60 4 -89.5 42.5t-29.5 102.5z" />
<glyph unicode="&#x201c;" horiz-adv-x="796" d="M92 1280q0 42 23 94l151 316l90 -39l-100 -213l-18 -13q59 -4 88.5 -43t29.5 -102q0 -68 -33.5 -106.5t-97.5 -38.5q-65 0 -99 38t-34 107zM440 1280q0 42 23 94l151 316l91 -39l-101 -213l-18 -13q59 -4 89 -43t30 -102q0 -68 -34 -106.5t-98 -38.5q-65 0 -99 38 t-34 107z" />
<glyph unicode="&#x201d;" horiz-adv-x="796" d="M92 1161l101 213l18 15q-59 3 -89 41.5t-30 101.5q0 68 33.5 106.5t97.5 38.5q65 0 99 -38t34 -107q0 -44 -22 -94l-152 -316zM440 1161l101 213l18 15q-59 3 -89 41.5t-30 101.5q0 68 33.5 106.5t97.5 38.5q65 0 99.5 -38.5t34.5 -106.5q0 -42 -23 -94l-152 -316z" />
<glyph unicode="&#x201e;" horiz-adv-x="796" d="M92 133q0 67 34 106.5t97 39.5q65 0 99 -39t34 -107q0 -45 -22 -94l-152 -315l-90 38l101 211l18 15q-60 4 -89.5 42.5t-29.5 102.5zM440 133q0 67 34 106.5t97 39.5q65 0 99.5 -39.5t34.5 -106.5q0 -42 -23 -94l-152 -315l-90 38l101 211l18 15q-60 4 -89.5 42.5 t-29.5 102.5z" />
<glyph unicode="&#x2022;" horiz-adv-x="681" d="M0 829q0 103 73 175.5t177 72.5q103 0 175.5 -72.5t72.5 -175.5q0 -104 -72.5 -176.5t-175.5 -72.5q-104 0 -177 72.5t-73 176.5z" />
<glyph unicode="&#x2026;" horiz-adv-x="1595" d="M123 127q0 67 34 106t97 39q65 0 99 -39t34 -106q0 -68 -34.5 -107.5t-98.5 -39.5q-63 0 -97 39t-34 108zM655 127q0 67 34 106t97 39q65 0 99.5 -39t34.5 -106q0 -68 -35 -107.5t-99 -39.5q-63 0 -97 39t-34 108zM1188 127q0 67 34 106t97 39q65 0 99 -39t34 -106 q0 -68 -34.5 -107.5t-98.5 -39.5q-63 0 -97 39t-34 108z" />
<glyph unicode="&#x202f;" horiz-adv-x="447" />
<glyph unicode="&#x2039;" horiz-adv-x="694" d="M113 522l376 404l93 -99l-168 -180l-129 -121v-10l129 -121l168 -178l-93 -98z" />
<glyph unicode="&#x203a;" horiz-adv-x="694" d="M113 217l168 178l127 121v10l-127 121l-168 180l90 99l379 -404l-379 -403z" />
<glyph unicode="&#x205f;" horiz-adv-x="559" />
<glyph unicode="&#x20ac;" horiz-adv-x="1501" d="M82 594v143h166l-8 15v67q0 59 2 88l8 15h-168v143h186l-8 16q52 281 208 439.5t396 158.5q331 0 494 -233l-103 -107q-67 105 -162 154t-229 49q-95 0 -172.5 -35t-131.5 -99t-90 -145.5t-56 -181.5l-13 -16h658v-143h-676l8 -17q-2 -29 -2 -86q0 -44 2 -67l-8 -15h676 v-143h-662l13 -16q18 -101 52.5 -181.5t88.5 -145t133 -99.5t178 -35q134 0 229 48t164 152l99 -104q-165 -233 -492 -233q-251 0 -406 157.5t-200 440.5l8 16h-182z" />
<glyph unicode="&#x2122;" horiz-adv-x="1632" d="M61 1589v70h666v-70h-301l4 -6v-754h-72v754l4 6h-301zM782 829v830h64l287 -588l43 -96h2l43 96l286 588h64v-830h-72v670h-2l-59 -141l-260 -539h-2l-265 543l-55 137h-2v-670h-72z" />
<glyph unicode="&#x25fc;" horiz-adv-x="1290" d="M0 0v1290h1290v-1290h-1290z" />
<glyph unicode="&#xfb01;" horiz-adv-x="1300" d="M61 1165v123h166l-10 15v38q0 181 101.5 285.5t285.5 104.5q77 0 150 -27v-125q-77 23 -146 23q-125 0 -189.5 -71t-64.5 -194v-34l-8 -15h770v-1288h-137v1165h-633l8 -14v-1151h-137v1151l10 14h-166zM946 1616q0 56 27 86.5t76 30.5q50 0 76 -30.5t26 -86.5 t-26.5 -86.5t-75.5 -30.5t-76 30.5t-27 86.5z" />
<glyph unicode="&#xfb02;" horiz-adv-x="1298" d="M61 1165v123h166l-10 15v38q0 179 101 279t286 100l510 -2v-1718h-135v1593l-371 -2q-126 0 -190 -66t-64 -188v-34l-8 -15h408v-123h-408l8 -14v-1151h-137v1151l10 14h-166z" />
</font>
</defs>
</svg>
